  0
SECTION
  2
HEADER
  9
$ACADVER
  1
AC1015
  9
$ACADMAINTVER
 70
     6
  9
$DWGCODEPAGE
  3
ANSI_1252
  9
$INSBASE
 10
0.0
 20
0.0
 30
0.0
  9
$EXTMIN
 10
0.0
 20
0.0
 30
0.0
  9
$EXTMAX
 10
210.0000000000001
 20
297.0000000000001
 30
0.0
  9
$LIMMIN
 10
0.0
 20
0.0
  9
$LIMMAX
 10
12.0
 20
9.0
  9
$ORTHOMODE
 70
     0
  9
$REGENMODE
 70
     1
  9
$FILLMODE
 70
     1
  9
$QTEXTMODE
 70
     0
  9
$MIRRTEXT
 70
     1
  9
$LTSCALE
 40
1.0
  9
$ATTMODE
 70
     1
  9
$TEXTSIZE
 40
0.2
  9
$TRACEWID
 40
0.05
  9
$TEXTSTYLE
  7
Standard
  9
$CLAYER
  8
0
  9
$CELTYPE
  6
ByLayer
  9
$CECOLOR
 62
   256
  9
$CELTSCALE
 40
1.0
  9
$DISPSILH
 70
     0
  9
$DIMSCALE
 40
1.0
  9
$DIMASZ
 40
0.18
  9
$DIMEXO
 40
0.0625
  9
$DIMDLI
 40
0.38
  9
$DIMRND
 40
0.0
  9
$DIMDLE
 40
0.0
  9
$DIMEXE
 40
0.18
  9
$DIMTP
 40
0.0
  9
$DIMTM
 40
0.0
  9
$DIMTXT
 40
0.18
  9
$DIMCEN
 40
0.09
  9
$DIMTSZ
 40
0.0
  9
$DIMTOL
 70
     0
  9
$DIMLIM
 70
     0
  9
$DIMTIH
 70
     1
  9
$DIMTOH
 70
     1
  9
$DIMSE1
 70
     0
  9
$DIMSE2
 70
     0
  9
$DIMTAD
 70
     0
  9
$DIMZIN
 70
     0
  9
$DIMBLK
  1

  9
$DIMASO
 70
     1
  9
$DIMSHO
 70
     1
  9
$DIMPOST
  1

  9
$DIMAPOST
  1

  9
$DIMALT
 70
     0
  9
$DIMALTD
 70
     2
  9
$DIMALTF
 40
25.4
  9
$DIMLFAC
 40
1.0
  9
$DIMTOFL
 70
     0
  9
$DIMTVP
 40
0.0
  9
$DIMTIX
 70
     0
  9
$DIMSOXD
 70
     0
  9
$DIMSAH
 70
     0
  9
$DIMBLK1
  1

  9
$DIMBLK2
  1

  9
$DIMSTYLE
  2
Standard
  9
$DIMCLRD
 70
     0
  9
$DIMCLRE
 70
     0
  9
$DIMCLRT
 70
     0
  9
$DIMTFAC
 40
1.0
  9
$DIMGAP
 40
0.09
  9
$DIMJUST
 70
     0
  9
$DIMSD1
 70
     0
  9
$DIMSD2
 70
     0
  9
$DIMTOLJ
 70
     1
  9
$DIMTZIN
 70
     0
  9
$DIMALTZ
 70
     0
  9
$DIMALTTZ
 70
     0
  9
$DIMUPT
 70
     0
  9
$DIMDEC
 70
     4
  9
$DIMTDEC
 70
     4
  9
$DIMALTU
 70
     2
  9
$DIMALTTD
 70
     2
  9
$DIMTXSTY
  7
Standard
  9
$DIMAUNIT
 70
     0
  9
$DIMADEC
 70
     0
  9
$DIMALTRND
 40
0.0
  9
$DIMAZIN
 70
     0
  9
$DIMDSEP
 70
    46
  9
$DIMATFIT
 70
     3
  9
$DIMFRAC
 70
     0
  9
$DIMLDRBLK
  1

  9
$DIMLUNIT
 70
     2
  9
$DIMLWD
 70
    -2
  9
$DIMLWE
 70
    -2
  9
$DIMTMOVE
 70
     0
  9
$LUNITS
 70
     2
  9
$LUPREC
 70
     4
  9
$SKETCHINC
 40
0.1
  9
$FILLETRAD
 40
0.5
  9
$AUNITS
 70
     0
  9
$AUPREC
 70
     0
  9
$MENU
  1
.
  9
$ELEVATION
 40
0.0
  9
$PELEVATION
 40
0.0
  9
$THICKNESS
 40
0.0
  9
$LIMCHECK
 70
     0
  9
$CHAMFERA
 40
0.5
  9
$CHAMFERB
 40
0.5
  9
$CHAMFERC
 40
1.0
  9
$CHAMFERD
 40
0.0
  9
$SKPOLY
 70
     0
  9
$TDCREATE
 40
2456997.490996979
  9
$TDUCREATE
 40
2456997.449330313
  9
$TDUPDATE
 40
2456997.490997338
  9
$TDUUPDATE
 40
2456997.449330671
  9
$TDINDWG
 40
0.0000000116
  9
$TDUSRTIMER
 40
0.0000000116
  9
$USRTIMER
 70
     1
  9
$ANGBASE
 50
0.0
  9
$ANGDIR
 70
     0
  9
$PDMODE
 70
     0
  9
$PDSIZE
 40
0.0
  9
$PLINEWID
 40
0.0
  9
$SPLFRAME
 70
     0
  9
$SPLINETYPE
 70
     6
  9
$SPLINESEGS
 70
     8
  9
$HANDSEED
  5
3FE
  9
$SURFTAB1
 70
     6
  9
$SURFTAB2
 70
     6
  9
$SURFTYPE
 70
     6
  9
$SURFU
 70
     6
  9
$SURFV
 70
     6
  9
$UCSBASE
  2

  9
$UCSNAME
  2

  9
$UCSORG
 10
0.0
 20
0.0
 30
0.0
  9
$UCSXDIR
 10
1.0
 20
0.0
 30
0.0
  9
$UCSYDIR
 10
0.0
 20
1.0
 30
0.0
  9
$UCSORTHOREF
  2

  9
$UCSORTHOVIEW
 70
     0
  9
$UCSORGTOP
 10
0.0
 20
0.0
 30
0.0
  9
$UCSORGBOTTOM
 10
0.0
 20
0.0
 30
0.0
  9
$UCSORGLEFT
 10
0.0
 20
0.0
 30
0.0
  9
$UCSORGRIGHT
 10
0.0
 20
0.0
 30
0.0
  9
$UCSORGFRONT
 10
0.0
 20
0.0
 30
0.0
  9
$UCSORGBACK
 10
0.0
 20
0.0
 30
0.0
  9
$PUCSBASE
  2

  9
$PUCSNAME
  2

  9
$PUCSORG
 10
0.0
 20
0.0
 30
0.0
  9
$PUCSXDIR
 10
1.0
 20
0.0
 30
0.0
  9
$PUCSYDIR
 10
0.0
 20
1.0
 30
0.0
  9
$PUCSORTHOREF
  2

  9
$PUCSORTHOVIEW
 70
     0
  9
$PUCSORGTOP
 10
0.0
 20
0.0
 30
0.0
  9
$PUCSORGBOTTOM
 10
0.0
 20
0.0
 30
0.0
  9
$PUCSORGLEFT
 10
0.0
 20
0.0
 30
0.0
  9
$PUCSORGRIGHT
 10
0.0
 20
0.0
 30
0.0
  9
$PUCSORGFRONT
 10
0.0
 20
0.0
 30
0.0
  9
$PUCSORGBACK
 10
0.0
 20
0.0
 30
0.0
  9
$USERI1
 70
     0
  9
$USERI2
 70
     0
  9
$USERI3
 70
     0
  9
$USERI4
 70
     0
  9
$USERI5
 70
     0
  9
$USERR1
 40
18.1
  9
$USERR2
 40
0.0
  9
$USERR3
 40
0.0
  9
$USERR4
 40
0.0
  9
$USERR5
 40
0.0
  9
$WORLDVIEW
 70
     1
  9
$SHADEDGE
 70
     3
  9
$SHADEDIF
 70
    70
  9
$TILEMODE
 70
     1
  9
$MAXACTVP
 70
    64
  9
$PINSBASE
 10
0.0
 20
0.0
 30
0.0
  9
$PLIMCHECK
 70
     0
  9
$PEXTMIN
 10
1.00000000000000E+20
 20
1.00000000000000E+20
 30
1.00000000000000E+20
  9
$PEXTMAX
 10
-1.00000000000000E+20
 20
-1.00000000000000E+20
 30
-1.00000000000000E+20
  9
$PLIMMIN
 10
0.0
 20
0.0
  9
$PLIMMAX
 10
12.0
 20
9.0
  9
$UNITMODE
 70
     0
  9
$VISRETAIN
 70
     1
  9
$PLINEGEN
 70
     0
  9
$PSLTSCALE
 70
     1
  9
$TREEDEPTH
 70
  3020
  9
$CMLSTYLE
  2
Standard
  9
$CMLJUST
 70
     0
  9
$CMLSCALE
 40
1.0
  9
$PROXYGRAPHICS
 70
     1
  9
$MEASUREMENT
 70
     1
  9
$CELWEIGHT
370
    -1
  9
$ENDCAPS
280
     0
  9
$JOINSTYLE
280
     0
  9
$LWDISPLAY
290
     0
  9
$INSUNITS
 70
     4
  9
$HYPERLINKBASE
  1

  9
$STYLESHEET
  1

  9
$XEDIT
290
     1
  9
$CEPSNTYPE
380
     0
  9
$PSTYLEMODE
290
     1
  9
$FINGERPRINTGUID
  2
{9A1AEA19-C4C0-4B6F-B1AD-519BF46D03E1}
  9
$VERSIONGUID
  2
{FAEB1C32-E019-11D5-929B-00C0DF256EC4}
  9
$EXTNAMES
290
     1
  9
$PSVPSCALE
 40
0.0
  9
$OLESTARTUP
290
     0
  0
ENDSEC
  0
SECTION
  2
CLASSES
  0
CLASS
  1
ACDBDICTIONARYWDFLT
  2
AcDbDictionaryWithDefault
  3
ObjectDBX Classes
 90
        0
280
     0
281
     0
  0
CLASS
  1
VISUALSTYLE
  2
AcDbVisualStyle
  3
ObjectDBX Classes
 90
     4095
280
     0
281
     0
  0
CLASS
  1
MATERIAL
  2
AcDbMaterial
  3
ObjectDBX Classes
 90
     1153
280
     0
281
     0
  0
CLASS
  1
DICTIONARYVAR
  2
AcDbDictionaryVar
  3
ObjectDBX Classes
 90
        0
280
     0
281
     0
  0
CLASS
  1
ACDBPLACEHOLDER
  2
AcDbPlaceHolder
  3
ObjectDBX Classes
 90
        0
280
     0
281
     0
  0
CLASS
  1
LAYOUT
  2
AcDbLayout
  3
ObjectDBX Classes
 90
        0
280
     0
281
     0
  0
ENDSEC
  0
SECTION
  2
TABLES
  0
TABLE
  2
VPORT
  5
8
330
0
100
AcDbSymbolTable
 70
     1
  0
VPORT
  5
29
330
8
100
AcDbSymbolTableRecord
100
AcDbViewportTableRecord
  2
*Active
 70
     0
 10
0.0
 20
0.0
 11
1.0
 21
1.0
 12
105.0000000000001
 22
148.5000000000001
 13
0.0
 23
0.0
 14
0.5
 24
0.5
 15
0.5
 25
0.5
 16
0.0
 26
0.0
 36
1.0
 17
0.0
 27
0.0
 37
0.0
 40
326.7000000000002
 41
1.60267857142857
 42
50.0
 43
0.0
 44
0.0
 50
0.0
 51
0.0
 71
     0
 72
   100
 73
     1
 74
     3
 75
     0
 76
     0
 77
     0
 78
     0
281
     0
 65
     1
110
0.0
120
0.0
130
0.0
111
1.0
121
0.0
131
0.0
112
0.0
122
1.0
132
0.0
 79
     0
146
0.0
  0
ENDTAB
  0
TABLE
  2
LTYPE
  5
5
330
0
100
AcDbSymbolTable
 70
     8
  0
LTYPE
  5
14
330
5
100
AcDbSymbolTableRecord
100
AcDbLinetypeTableRecord
  2
ByBlock
 70
     0
  3

 72
    65
 73
     0
 40
0.0
  0
LTYPE
  5
15
330
5
100
AcDbSymbolTableRecord
100
AcDbLinetypeTableRecord
  2
ByLayer
 70
     0
  3

 72
    65
 73
     0
 40
0.0
  0
LTYPE
  5
16
330
5
100
AcDbSymbolTableRecord
100
AcDbLinetypeTableRecord
  2
Continuous
 70
     0
  3
Solid line
 72
    65
 73
     0
 40
0.0
  0
LTYPE
  5
3F
330
5
100
AcDbSymbolTableRecord
100
AcDbLinetypeTableRecord
  2
DASHED
 70
     0
  3
Dashed
 72
    65
 73
     2
 40
15.0
 49
7.0
 74
     0
 49
-8.0
 74
     0
  0
LTYPE
  5
40
330
5
100
AcDbSymbolTableRecord
100
AcDbLinetypeTableRecord
  2
DOTTED
 70
     0
  3
Dotted
 72
    65
 73
     2
 40
1.0
 49
0.0
 74
     0
 49
-1.0
 74
     0
  0
LTYPE
  5
41
330
5
100
AcDbSymbolTableRecord
100
AcDbLinetypeTableRecord
  2
DOT_CENTER
 70
     0
  3
Dot_Center
 72
    65
 73
     4
 40
14.0
 49
12.0
 74
     0
 49
-1.0
 74
     0
 49
0.0
 74
     0
 49
-1.0
 74
     0
  0
LTYPE
  5
42
330
5
100
AcDbSymbolTableRecord
100
AcDbLinetypeTableRecord
  2
LONG_DASHED
 70
     0
  3
Long_Dashed
 72
    65
 73
     2
 40
15.0
 49
10.0
 74
     0
 49
-5.0
 74
     0
  0
LTYPE
  5
43
330
5
100
AcDbSymbolTableRecord
100
AcDbLinetypeTableRecord
  2
DASH_CENTER
 70
     0
  3
Dash_Center
 72
    65
 73
     4
 40
14.0
 49
11.0
 74
     0
 49
-1.0
 74
     0
 49
1.0
 74
     0
 49
-1.0
 74
     0
  0
LTYPE
  5
44
330
5
100
AcDbSymbolTableRecord
100
AcDbLinetypeTableRecord
  2
PHANTOM
 70
     0
  3
Phantom
 72
    65
 73
     6
 40
13.0
 49
10.0
 74
     0
 49
-1.0
 74
     0
 49
0.0
 74
     0
 49
-1.0
 74
     0
 49
0.0
 74
     0
 49
-1.0
 74
     0
  0
LTYPE
  5
45
330
5
100
AcDbSymbolTableRecord
100
AcDbLinetypeTableRecord
  2
CENTER_DASH_DASH
 70
     0
  3
Center_Dash_Dash
 72
    65
 73
     6
 40
14.0
 49
9.0
 74
     0
 49
-1.0
 74
     0
 49
1.0
 74
     0
 49
-1.0
 74
     0
 49
1.0
 74
     0
 49
-1.0
 74
     0
  0
ENDTAB
  0
TABLE
  2
LAYER
  5
2
330
0
100
AcDbSymbolTable
 70
     2
  0
LAYER
  5
10
330
2
100
AcDbSymbolTableRecord
100
AcDbLayerTableRecord
  2
0
 70
     0
 62
     7
  6
Continuous
370
    -3
390
F
  0
LAYER
  5
46
330
2
100
AcDbSymbolTableRecord
100
AcDbLayerTableRecord
  2
1
 70
     0
 62
     7
  6
Continuous
370
    -3
390
F
  0
ENDTAB
  0
TABLE
  2
STYLE
  5
3
330
0
100
AcDbSymbolTable
 70
     4
  0
STYLE
  5
11
330
3
100
AcDbSymbolTableRecord
100
AcDbTextStyleTableRecord
  2
Standard
 70
     0
 40
0.0
 41
1.0
 50
0.0
 71
     0
 42
0.2
  3
txt
  4

  0
STYLE
  5
396
330
3
100
AcDbSymbolTableRecord
100
AcDbTextStyleTableRecord
  2
CONVERTER_11
 70
     0
 40
0.0
 41
0.95
 50
0.0
 71
     0
 42
0.2
  3
simplex.shx
  4

  0
STYLE
  5
39E
330
3
100
AcDbSymbolTableRecord
100
AcDbTextStyleTableRecord
  2
CONVERTER_12
 70
     0
 40
0.0
 41
1.2
 50
0.0
 71
     0
 42
0.2
  3
ARIAL.TTF
  4

  0
STYLE
  5
3A2
330
3
100
AcDbSymbolTableRecord
100
AcDbTextStyleTableRecord
  2
CONVERTER_13
 70
     0
 40
0.0
 41
0.855
 50
0.0
 71
     0
 42
0.2
  3
simplex.shx
  4

  0
ENDTAB
  0
TABLE
  2
VIEW
  5
6
330
0
100
AcDbSymbolTable
 70
     0
  0
ENDTAB
  0
TABLE
  2
UCS
  5
7
330
0
100
AcDbSymbolTable
 70
     0
  0
ENDTAB
  0
TABLE
  2
APPID
  5
9
330
0
100
AcDbSymbolTable
 70
     1
  0
APPID
  5
12
330
9
100
AcDbSymbolTableRecord
100
AcDbRegAppTableRecord
  2
ACAD
 70
     0
  0
ENDTAB
  0
TABLE
  2
DIMSTYLE
  5
A
330
0
100
AcDbSymbolTable
 70
     4
100
AcDbDimStyleTable
  0
DIMSTYLE
105
27
330
A
100
AcDbSymbolTableRecord
100
AcDbDimStyleTableRecord
  2
Standard
 70
     0
178
     0
340
11
  0
DIMSTYLE
105
3B5
102
{ACAD_REACTORS
330
3B6
102
}
330
A
100
AcDbSymbolTableRecord
100
AcDbDimStyleTableRecord
  2
ME10_DIM_10
 70
     0
 41
3.0
 42
0.5
 44
1.0
 73
     0
 74
     0
 77
     1
 78
     8
140
3.0
147
2.0
172
     1
173
     1
174
     1
175
     1
176
     2
177
     2
271
     2
178
     4
271
     2
340
396
  0
DIMSTYLE
105
3C0
102
{ACAD_REACTORS
330
3C1
102
}
330
A
100
AcDbSymbolTableRecord
100
AcDbDimStyleTableRecord
  2
ME10_DIM_11
 70
     0
 41
3.0
 42
0.5
 44
1.0
 73
     0
 74
     0
 77
     1
 78
     8
140
3.0
147
2.0
172
     1
173
     1
174
     1
175
     1
176
     2
177
     2
271
     2
178
     4
271
     2
340
396
  0
DIMSTYLE
105
3CB
102
{ACAD_REACTORS
330
3CC
102
}
330
A
100
AcDbSymbolTableRecord
100
AcDbDimStyleTableRecord
  2
ME10_DIM_12
 70
     0
 41
3.0
 42
0.5
 44
1.0
 73
     0
 74
     0
 77
     1
 78
     8
140
3.0
147
2.0
172
     1
173
     1
174
     1
175
     1
176
     2
177
     2
271
     2
178
     4
271
     2
340
396
  0
ENDTAB
  0
TABLE
  2
BLOCK_RECORD
  5
1
330
0
100
AcDbSymbolTable
 70
     4
  0
BLOCK_RECORD
  5
1F
330
1
100
AcDbSymbolTableRecord
100
AcDbBlockTableRecord
  2
*Model_Space
340
22
  0
BLOCK_RECORD
  5
1B
330
1
100
AcDbSymbolTableRecord
100
AcDbBlockTableRecord
  2
*Paper_Space
340
1E
  0
BLOCK_RECORD
  5
23
330
1
100
AcDbSymbolTableRecord
100
AcDbBlockTableRecord
  2
*Paper_Space0
340
26
  0
BLOCK_RECORD
  5
3AC
330
1
100
AcDbSymbolTableRecord
100
AcDbBlockTableRecord
  2
*D1
340
0
  0
BLOCK_RECORD
  5
3B7
330
1
100
AcDbSymbolTableRecord
100
AcDbBlockTableRecord
  2
*D2
340
0
  0
BLOCK_RECORD
  5
3C2
330
1
100
AcDbSymbolTableRecord
100
AcDbBlockTableRecord
  2
*D3
340
0
  0
ENDTAB
  0
ENDSEC
  0
SECTION
  2
BLOCKS
  0
BLOCK
  5
20
330
1F
100
AcDbEntity
  8
0
100
AcDbBlockBegin
  2
*Model_Space
 70
     0
 10
0.0
 20
0.0
 30
0.0
  3
*Model_Space
  1

  0
ENDBLK
  5
21
330
1F
100
AcDbEntity
  8
0
100
AcDbBlockEnd
  0
BLOCK
  5
1C
330
1B
100
AcDbEntity
 67
     1
  8
0
100
AcDbBlockBegin
  2
*Paper_Space
 70
     0
 10
0.0
 20
0.0
 30
0.0
  3
*Paper_Space
  1

  0
ENDBLK
  5
1D
330
1B
100
AcDbEntity
 67
     1
  8
0
100
AcDbBlockEnd
  0
BLOCK
  5
24
330
23
100
AcDbEntity
  8
0
100
AcDbBlockBegin
  2
*Paper_Space0
 70
     0
 10
0.0
 20
0.0
 30
0.0
  3
*Paper_Space0
  1

  0
ENDBLK
  5
25
330
23
100
AcDbEntity
  8
0
100
AcDbBlockEnd
  0
BLOCK
  5
3B3
330
3AC
100
AcDbEntity
  8
0
100
AcDbBlockBegin
  2
*D1
 70
     1
 10
0.0
 20
0.0
 30
0.0
  3
*D1
  1

  0
LINE
  5
3AD
330
3AC
100
AcDbEntity
  8
1
  6
Continuous
 62
     2
100
AcDbLine
 10
180.100602930276
 20
140.7997289057426
 30
0.0
 11
180.100602930276
 21
174.2997289057428
 31
0.0
  0
LINE
  5
3AE
330
3AC
100
AcDbEntity
  8
1
  6
Continuous
 62
     2
100
AcDbLine
 10
168.4000000000001
 20
174.2997289057428
 30
0.0
 11
181.100602930276
 21
174.2997289057428
 31
0.0
  0
LINE
  5
3AF
330
3AC
100
AcDbEntity
  8
1
  6
Continuous
 62
     2
100
AcDbLine
 10
166.4000000000001
 20
140.7997289057426
 30
0.0
 11
181.100602930276
 21
140.7997289057426
 31
0.0
  0
SOLID
  5
3B0
330
3AC
100
AcDbEntity
  8
1
 62
     2
100
AcDbTrace
 10
179.7056454375138
 20
143.7997289057426
 30
0.0
 11
180.4955604230382
 21
143.7997289057426
 31
0.0
 12
180.100602930276
 22
140.7997289057426
 32
0.0
 13
180.100602930276
 23
140.7997289057426
 33
0.0
  0
SOLID
  5
3B1
330
3AC
100
AcDbEntity
  8
1
 62
     2
100
AcDbTrace
 10
180.4955604230382
 20
171.2997289057428
 30
0.0
 11
179.7056454375138
 21
171.2997289057428
 31
0.0
 12
180.100602930276
 22
174.2997289057428
 32
0.0
 13
180.100602930276
 23
174.2997289057428
 33
0.0
  0
MTEXT
  5
3B2
330
3AC
100
AcDbEntity
  8
1
 62
     4
100
AcDbMText
 10
177.800602930276
 20
153.4247289057427
 30
0.0
 40
3.0
 41
0.0
 71
     7
 72
     1
  1
33,5
  7
CONVERTER_11
 11
0.0
 21
1.0
 31
0.0
 73
     1
 44
0.60024009603842
  0
ENDBLK
  5
3B4
330
3AC
100
AcDbEntity
  8
0
100
AcDbBlockEnd
  0
BLOCK
  5
3BE
330
3B7
100
AcDbEntity
  8
0
100
AcDbBlockBegin
  2
*D2
 70
     1
 10
0.0
 20
0.0
 30
0.0
  3
*D2
  1

  0
LINE
  5
3B8
330
3B7
100
AcDbEntity
  8
1
  6
Continuous
 62
     2
100
AcDbLine
 10
135.9000000000001
 20
185.131527014503
 30
0.0
 11
165.9000000000001
 21
185.131527014503
 31
0.0
  0
LINE
  5
3B9
330
3B7
100
AcDbEntity
  8
1
  6
Continuous
 62
     2
100
AcDbLine
 10
135.9000000000001
 20
174.7997289057426
 30
0.0
 11
135.9000000000001
 21
186.131527014503
 31
0.0
  0
LINE
  5
3BA
330
3B7
100
AcDbEntity
  8
1
  6
Continuous
 62
     2
100
AcDbLine
 10
165.9000000000001
 20
174.7997289057427
 30
0.0
 11
165.9000000000001
 21
186.131527014503
 31
0.0
  0
SOLID
  5
3BB
330
3B7
100
AcDbEntity
  8
1
 62
     2
100
AcDbTrace
 10
138.9000000000001
 20
185.5264845072652
 30
0.0
 11
138.9000000000001
 21
184.7365695217408
 31
0.0
 12
135.9000000000001
 22
185.131527014503
 32
0.0
 13
135.9000000000001
 23
185.131527014503
 33
0.0
  0
SOLID
  5
3BC
330
3B7
100
AcDbEntity
  8
1
 62
     2
100
AcDbTrace
 10
162.9000000000001
 20
184.7365695217408
 30
0.0
 11
162.9000000000001
 21
185.5264845072652
 31
0.0
 12
165.9000000000001
 22
185.131527014503
 32
0.0
 13
165.9000000000001
 23
185.131527014503
 33
0.0
  0
MTEXT
  5
3BD
330
3B7
100
AcDbEntity
  8
1
 62
     4
100
AcDbMText
 10
148.6500000000001
 20
187.131527014503
 30
0.0
 40
3.0
 41
0.0
 71
     7
 72
     1
  1
30
  7
CONVERTER_11
 11
0.9999999999970619
 21
2.424068405545306E-6
 31
0.0
 73
     1
 44
0.60024009603842
  0
ENDBLK
  5
3BF
330
3B7
100
AcDbEntity
  8
0
100
AcDbBlockEnd
  0
BLOCK
  5
3C9
330
3C2
100
AcDbEntity
  8
0
100
AcDbBlockBegin
  2
*D3
 70
     1
 10
0.0
 20
0.0
 30
0.0
  3
*D3
  1

  0
LINE
  5
3C3
330
3C2
100
AcDbEntity
  8
1
  6
Continuous
 62
     2
100
AcDbLine
 10
62.90000000000016
 20
184.981527014503
 30
0.0
 11
92.30000000000014
 21
184.981527014503
 31
0.0
  0
LINE
  5
3C4
330
3C2
100
AcDbEntity
  8
1
  6
Continuous
 62
     2
100
AcDbLine
 10
62.90000000000016
 20
174.7997289057427
 30
0.0
 11
62.90000000000016
 21
185.981527014503
 31
0.0
  0
LINE
  5
3C5
330
3C2
100
AcDbEntity
  8
1
  6
Continuous
 62
     2
100
AcDbLine
 10
92.30000000000014
 20
174.7997289057427
 30
0.0
 11
92.30000000000014
 21
185.981527014503
 31
0.0
  0
SOLID
  5
3C6
330
3C2
100
AcDbEntity
  8
1
 62
     2
100
AcDbTrace
 10
65.90000000000016
 20
185.3764845072652
 30
0.0
 11
65.90000000000016
 21
184.5865695217408
 31
0.0
 12
62.90000000000016
 22
184.981527014503
 32
0.0
 13
62.90000000000016
 23
184.981527014503
 33
0.0
  0
SOLID
  5
3C7
330
3C2
100
AcDbEntity
  8
1
 62
     2
100
AcDbTrace
 10
89.30000000000014
 20
184.5865695217408
 30
0.0
 11
89.30000000000014
 21
185.3764845072652
 31
0.0
 12
92.30000000000014
 22
184.981527014503
 32
0.0
 13
92.30000000000014
 23
184.981527014503
 33
0.0
  0
MTEXT
  5
3C8
330
3C2
100
AcDbEntity
  8
1
 62
     4
100
AcDbMText
 10
73.47500000000015
 20
187.281527014503
 30
0.0
 40
3.0
 41
0.0
 71
     7
 72
     1
  1
29,4
  7
CONVERTER_11
 11
0.9999999999970619
 21
2.424068405545306E-6
 31
0.0
 73
     1
 44
0.60024009603842
  0
ENDBLK
  5
3CA
330
3C2
100
AcDbEntity
  8
0
100
AcDbBlockEnd
  0
ENDSEC
  0
SECTION
  2
ENTITIES
  0
LINE
  5
47
330
1F
100
AcDbEntity
  8
1
  6
Continuous
 62
     7
100
AcDbLine
 10
158.9000000000001
 20
164.7997289057427
 30
0.0
 11
162.9000000000001
 21
164.7997289057427
 31
0.0
  0
LINE
  5
48
330
1F
100
AcDbEntity
  8
1
  6
Continuous
 62
     7
100
AcDbLine
 10
138.9
 20
164.7997289057426
 30
0.0
 11
142.9
 21
164.7997289057426
 31
0.0
  0
LINE
  5
49
330
1F
100
AcDbEntity
  8
0
  6
Continuous
 62
     7
100
AcDbLine
 10
138.9
 20
174.2997289057427
 30
0.0
 11
138.9
 21
164.7997289057426
 31
0.0
  0
LINE
  5
4A
330
1F
100
AcDbEntity
  8
0
  6
Continuous
 62
     7
100
AcDbLine
 10
142.1500000000001
 20
164.7997289057426
 30
0.0
 11
142.15
 21
174.2997289057427
 31
0.0
  0
LINE
  5
4B
330
1F
100
AcDbEntity
  8
0
  6
Continuous
 62
     7
100
AcDbLine
 10
62.90000000000012
 20
157.2997289057427
 30
0.0
 11
64.90000000000016
 21
157.2997289057427
 31
0.0
  0
LINE
  5
4C
330
1F
100
AcDbEntity
  8
0
  6
Continuous
 62
     7
100
AcDbLine
 10
92.30000000000014
 20
157.2997289057432
 30
0.0
 11
90.30000000000014
 21
157.2997289057432
 31
0.0
  0
LINE
  5
4D
330
1F
100
AcDbEntity
  8
0
  6
Continuous
 62
     7
100
AcDbLine
 10
92.58452365234827
 20
174.2997289057427
 30
0.0
 11
92.91547634765205
 21
174.2997289057427
 31
0.0
  0
LINE
  5
4E
330
1F
100
AcDbEntity
  8
0
  6
Continuous
 62
     7
100
AcDbLine
 10
92.93205080756901
 20
164.7997289057432
 30
0.0
 11
92.30000000000014
 21
164.7997289057432
 31
0.0
  0
LINE
  5
4F
330
1F
100
AcDbEntity
  8
0
  6
Continuous
 62
     7
100
AcDbLine
 10
90.30000000000014
 20
174.2997289057427
 30
0.0
 11
88.05000000000014
 21
174.2997289057427
 31
0.0
  0
LINE
  5
50
330
1F
100
AcDbEntity
  8
0
  6
Continuous
 62
     7
100
AcDbLine
 10
87.55000000000014
 20
171.2997289057427
 30
0.0
 11
82.35000000000015
 21
171.2997289057427
 31
0.0
  0
LINE
  5
51
330
1F
100
AcDbEntity
  8
0
  6
Continuous
 62
     7
100
AcDbLine
 10
92.30000000000014
 20
157.2997289057432
 30
0.0
 11
92.30000000000014
 21
174.2997289057427
 31
0.0
  0
LINE
  5
52
330
1F
100
AcDbEntity
  8
0
  6
Continuous
 62
     7
100
AcDbLine
 10
90.30000000000014
 20
174.2997289057427
 30
0.0
 11
92.30000000000014
 21
174.2997289057427
 31
0.0
  0
LINE
  5
53
330
1F
100
AcDbEntity
  8
0
  6
Continuous
 62
     7
100
AcDbLine
 10
93.13726328075536
 20
165.5655922820216
 30
0.0
 11
93.20000000000012
 21
165.7997289057432
 31
0.0
  0
LINE
  5
54
330
1F
100
AcDbEntity
  8
0
  6
Continuous
 62
     7
100
AcDbLine
 10
92.93205080756901
 20
164.7997289057432
 30
0.0
 11
93.13726328075536
 21
165.5655922820216
 31
0.0
  0
LINE
  5
55
330
1F
100
AcDbEntity
  8
0
  6
Continuous
 62
     7
100
AcDbLine
 10
93.20000000000012
 20
174.2997289057427
 30
0.0
 11
93.20000000000012
 21
165.7997289057432
 31
0.0
  0
LINE
  5
56
330
1F
100
AcDbEntity
  8
0
  6
Continuous
 62
     7
100
AcDbLine
 10
93.20000000000012
 20
174.2997289057427
 30
0.0
 11
92.91547634765205
 21
174.2997289057427
 31
0.0
  0
LINE
  5
57
330
1F
100
AcDbEntity
  8
0
  6
Continuous
 62
     7
100
AcDbLine
 10
92.30000000000014
 20
174.2997289057427
 30
0.0
 11
92.58452365234827
 21
174.2997289057427
 31
0.0
  0
LINE
  5
58
330
1F
100
AcDbEntity
  8
0
  6
Continuous
 62
     7
100
AcDbLine
 10
72.85000000000015
 20
171.2997289057427
 30
0.0
 11
67.65000000000016
 21
171.2997289057427
 31
0.0
  0
LINE
  5
59
330
1F
100
AcDbEntity
  8
0
  6
Continuous
 62
     7
100
AcDbLine
 10
73.35000000000016
 20
171.7997289057427
 30
0.0
 11
73.35000000000015
 21
174.2997289057427
 31
0.0
  0
LINE
  5
5A
330
1F
100
AcDbEntity
  8
0
  6
Continuous
 62
     7
100
AcDbLine
 10
67.15000000000012
 20
174.2997289057427
 30
0.0
 11
73.35000000000015
 21
174.2997289057427
 31
0.0
  0
LINE
  5
5B
330
1F
100
AcDbEntity
  8
0
  6
Continuous
 62
     7
100
AcDbLine
 10
64.90000000000012
 20
174.2997289057427
 30
0.0
 11
64.90000000000016
 21
157.2997289057427
 31
0.0
  0
LINE
  5
5C
330
1F
100
AcDbEntity
  8
0
  6
Continuous
 62
     7
100
AcDbLine
 10
67.15000000000012
 20
174.2997289057427
 30
0.0
 11
67.15000000000012
 21
171.7997289057427
 31
0.0
  0
LINE
  5
5D
330
1F
100
AcDbEntity
  8
0
  6
Continuous
 62
     7
100
AcDbLine
 10
79.60000000000015
 20
174.2997289057427
 30
0.0
 11
79.60000000000015
 21
157.2997289057427
 31
0.0
  0
LINE
  5
5E
330
1F
100
AcDbEntity
  8
0
  6
Continuous
 62
     7
100
AcDbLine
 10
90.30000000000014
 20
174.2997289057427
 30
0.0
 11
90.30000000000014
 21
157.2997289057432
 31
0.0
  0
LINE
  5
5F
330
1F
100
AcDbEntity
  8
0
  6
Continuous
 62
     7
100
AcDbLine
 10
88.05000000000014
 20
171.7997289057427
 30
0.0
 11
88.05000000000014
 21
174.2997289057427
 31
0.0
  0
LINE
  5
60
330
1F
100
AcDbEntity
  8
0
  6
Continuous
 62
     7
100
AcDbLine
 10
81.85000000000015
 20
174.2997289057427
 30
0.0
 11
88.05000000000014
 21
174.2997289057427
 31
0.0
  0
LINE
  5
61
330
1F
100
AcDbEntity
  8
0
  6
Continuous
 62
     7
100
AcDbLine
 10
81.85000000000015
 20
174.2997289057427
 30
0.0
 11
81.85000000000015
 21
171.7997289057427
 31
0.0
  0
LINE
  5
62
330
1F
100
AcDbEntity
  8
0
  6
Continuous
 62
     7
100
AcDbLine
 10
62.90000000000012
 20
140.7997289057426
 30
0.0
 11
92.30000000000014
 21
140.7997289057426
 31
0.0
  0
LINE
  5
63
330
1F
100
AcDbEntity
  8
0
  6
Continuous
 62
     7
100
AcDbLine
 10
75.60000000000015
 20
174.2997289057427
 30
0.0
 11
75.60000000000015
 21
157.2997289057432
 31
0.0
  0
LINE
  5
64
330
1F
100
AcDbEntity
  8
0
  6
Continuous
 62
     7
100
AcDbLine
 10
75.60000000000015
 20
174.2997289057427
 30
0.0
 11
79.60000000000015
 21
174.2997289057427
 31
0.0
  0
LINE
  5
65
330
1F
100
AcDbEntity
  8
0
  6
Continuous
 62
     7
100
AcDbLine
 10
67.15000000000012
 20
174.2997289057427
 30
0.0
 11
64.90000000000012
 21
174.2997289057427
 31
0.0
  0
LINE
  5
66
330
1F
100
AcDbEntity
  8
0
  6
Continuous
 62
     7
100
AcDbLine
 10
81.85000000000015
 20
174.2997289057427
 30
0.0
 11
79.60000000000015
 21
174.2997289057427
 31
0.0
  0
LINE
  5
67
330
1F
100
AcDbEntity
  8
0
  6
Continuous
 62
     7
100
AcDbLine
 10
75.60000000000015
 20
174.2997289057427
 30
0.0
 11
73.35000000000015
 21
174.2997289057427
 31
0.0
  0
LINE
  5
68
330
1F
100
AcDbEntity
  8
0
  6
Continuous
 62
     7
100
AcDbLine
 10
64.90000000000012
 20
174.2997289057427
 30
0.0
 11
62.90000000000016
 21
174.2997289057427
 31
0.0
  0
LINE
  5
69
330
1F
100
AcDbEntity
  8
0
  6
Continuous
 62
     7
100
AcDbLine
 10
92.30000000000014
 20
157.2997289057432
 30
0.0
 11
92.30000000000014
 21
140.7997289057426
 31
0.0
  0
LINE
  5
6A
330
1F
100
AcDbEntity
  8
0
  6
Continuous
 62
     7
100
AcDbLine
 10
75.60000000000015
 20
157.2997289057432
 30
0.0
 11
79.60000000000015
 21
157.2997289057427
 31
0.0
  0
LINE
  5
6B
330
1F
100
AcDbEntity
  8
0
  6
Continuous
 62
     7
100
AcDbLine
 10
62.90000000000012
 20
157.2997289057427
 30
0.0
 11
62.90000000000012
 21
140.7997289057426
 31
0.0
  0
LINE
  5
6C
330
1F
100
AcDbEntity
  8
0
  6
Continuous
 62
     7
100
AcDbLine
 10
62.90000000000016
 20
174.2997289057427
 30
0.0
 11
62.90000000000012
 21
157.2997289057427
 31
0.0
  0
LINE
  5
6D
330
1F
100
AcDbEntity
  8
0
  6
Continuous
 62
     7
100
AcDbLine
 10
159.273717262757
 20
174.2997289057427
 30
0.0
 11
159.0919603628918
 21
174.2997289057427
 31
0.0
  0
LINE
  5
6E
330
1F
100
AcDbEntity
  8
0
  6
Continuous
 62
     7
100
AcDbLine
 10
159.0740372591483
 20
174.2997289057427
 30
0.0
 11
159.0919603628918
 21
174.2997289057427
 31
0.0
  0
LINE
  5
6F
330
1F
100
AcDbEntity
  8
0
  6
Continuous
 62
     7
100
AcDbLine
 10
158.9
 20
174.2997289057427
 30
0.0
 11
158.9000000000001
 21
164.7997289057427
 31
0.0
  0
LINE
  5
70
330
1F
100
AcDbEntity
  8
0
  6
Continuous
 62
     7
100
AcDbLine
 10
158.9
 20
174.2997289057427
 30
0.0
 11
159.0740372591483
 21
174.2997289057427
 31
0.0
  0
LINE
  5
71
330
1F
100
AcDbEntity
  8
0
  6
Continuous
 62
     7
100
AcDbLine
 10
159.4262827372431
 20
174.2997289057427
 30
0.0
 11
159.273717262757
 21
174.2997289057427
 31
0.0
  0
LINE
  5
72
330
1F
100
AcDbEntity
  8
0
  6
Continuous
 62
     7
100
AcDbLine
 10
159.65
 20
174.2997289057427
 30
0.0
 11
159.65
 21
164.7997289057427
 31
0.0
  0
LINE
  5
73
330
1F
100
AcDbEntity
  8
0
  6
Continuous
 62
     7
100
AcDbLine
 10
159.65
 20
174.2997289057427
 30
0.0
 11
159.4262827372431
 21
174.2997289057427
 31
0.0
  0
LINE
  5
74
330
1F
100
AcDbEntity
  8
0
  6
Continuous
 62
     7
100
AcDbLine
 10
133.9
 20
171.2997289057426
 30
0.0
 11
133.9
 21
171.7997289057426
 31
0.0
  0
LINE
  5
75
330
1F
100
AcDbEntity
  8
0
  6
Continuous
 62
     7
100
AcDbLine
 10
135.9
 20
171.2997289057426
 30
0.0
 11
133.9
 21
171.2997289057426
 31
0.0
  0
LINE
  5
76
330
1F
100
AcDbEntity
  8
0
  6
Continuous
 62
     7
100
AcDbLine
 10
137.9000000000001
 20
157.2997289057426
 30
0.0
 11
135.9
 21
157.2997289057426
 31
0.0
  0
LINE
  5
77
330
1F
100
AcDbEntity
  8
0
  6
Continuous
 62
     7
100
AcDbLine
 10
135.9000000000001
 20
154.7997289057427
 30
0.0
 11
135.9
 21
157.2997289057426
 31
0.0
  0
LINE
  5
78
330
1F
100
AcDbEntity
  8
0
  6
Continuous
 62
     7
100
AcDbLine
 10
135.9000000000001
 20
154.7997289057427
 30
0.0
 11
139.9000000000002
 21
154.7997289057427
 31
0.0
  0
LINE
  5
79
330
1F
100
AcDbEntity
  8
0
  6
Continuous
 62
     7
100
AcDbLine
 10
133.9
 20
174.2997289057426
 30
0.0
 11
135.9
 21
174.2997289057426
 31
0.0
  0
LINE
  5
7A
330
1F
100
AcDbEntity
  8
0
  6
Continuous
 62
     7
100
AcDbLine
 10
133.9
 20
171.7997289057426
 30
0.0
 11
133.9
 21
174.2997289057426
 31
0.0
  0
LINE
  5
7B
330
1F
100
AcDbEntity
  8
0
  6
Continuous
 62
     7
100
AcDbLine
 10
135.9
 20
157.2997289057426
 30
0.0
 11
135.9
 21
174.2997289057426
 31
0.0
  0
LINE
  5
7C
330
1F
100
AcDbEntity
  8
0
  6
Continuous
 62
     7
100
AcDbLine
 10
135.9
 20
174.2997289057426
 30
0.0
 11
137.9
 21
174.2997289057427
 31
0.0
  0
LINE
  5
7D
330
1F
100
AcDbEntity
  8
0
  6
Continuous
 62
     7
100
AcDbLine
 10
142.9
 20
174.2997289057427
 30
0.0
 11
158.9
 21
174.2997289057427
 31
0.0
  0
LINE
  5
7E
330
1F
100
AcDbEntity
  8
0
  6
Continuous
 62
     7
100
AcDbLine
 10
165.9000000000001
 20
157.2997289057427
 30
0.0
 11
165.9000000000001
 21
140.7997289057426
 31
0.0
  0
LINE
  5
7F
330
1F
100
AcDbEntity
  8
0
  6
Continuous
 62
     7
100
AcDbLine
 10
142.9
 20
164.7997289057426
 30
0.0
 11
142.9
 21
174.2997289057427
 31
0.0
  0
LINE
  5
80
330
1F
100
AcDbEntity
  8
0
  6
Continuous
 62
     7
100
AcDbLine
 10
142.15
 20
174.2997289057427
 30
0.0
 11
142.3737172627569
 21
174.2997289057427
 31
0.0
  0
LINE
  5
81
330
1F
100
AcDbEntity
  8
0
  6
Continuous
 62
     7
100
AcDbLine
 10
139.65
 20
174.2997289057427
 30
0.0
 11
142.15
 21
174.2997289057427
 31
0.0
  0
LINE
  5
82
330
1F
100
AcDbEntity
  8
0
  6
Continuous
 62
     7
100
AcDbLine
 10
139.4262827372431
 20
174.2997289057427
 30
0.0
 11
139.65
 21
174.2997289057427
 31
0.0
  0
LINE
  5
83
330
1F
100
AcDbEntity
  8
0
  6
Continuous
 62
     7
100
AcDbLine
 10
139.65
 20
174.2997289057427
 30
0.0
 11
139.65
 21
164.7997289057426
 31
0.0
  0
LINE
  5
84
330
1F
100
AcDbEntity
  8
0
  6
Continuous
 62
     7
100
AcDbLine
 10
142.9
 20
174.2997289057427
 30
0.0
 11
142.7259627408517
 21
174.2997289057427
 31
0.0
  0
LINE
  5
85
330
1F
100
AcDbEntity
  8
0
  6
Continuous
 62
     7
100
AcDbLine
 10
142.5262827372431
 20
174.2997289057427
 30
0.0
 11
142.7080396371082
 21
174.2997289057427
 31
0.0
  0
LINE
  5
86
330
1F
100
AcDbEntity
  8
0
  6
Continuous
 62
     7
100
AcDbLine
 10
142.7080396371082
 20
174.2997289057427
 30
0.0
 11
142.7259627408517
 21
174.2997289057427
 31
0.0
  0
LINE
  5
87
330
1F
100
AcDbEntity
  8
0
  6
Continuous
 62
     7
100
AcDbLine
 10
142.5262827372431
 20
174.2997289057427
 30
0.0
 11
142.3737172627569
 21
174.2997289057427
 31
0.0
  0
LINE
  5
88
330
1F
100
AcDbEntity
  8
0
  6
Continuous
 62
     7
100
AcDbLine
 10
139.273717262757
 20
174.2997289057427
 30
0.0
 11
139.0919603628918
 21
174.2997289057427
 31
0.0
  0
LINE
  5
89
330
1F
100
AcDbEntity
  8
0
  6
Continuous
 62
     7
100
AcDbLine
 10
139.0740372591483
 20
174.2997289057427
 30
0.0
 11
139.0919603628918
 21
174.2997289057427
 31
0.0
  0
LINE
  5
8A
330
1F
100
AcDbEntity
  8
0
  6
Continuous
 62
     7
100
AcDbLine
 10
139.4262827372431
 20
174.2997289057427
 30
0.0
 11
139.273717262757
 21
174.2997289057427
 31
0.0
  0
LINE
  5
8B
330
1F
100
AcDbEntity
  8
0
  6
Continuous
 62
     7
100
AcDbLine
 10
138.9
 20
174.2997289057427
 30
0.0
 11
139.0740372591483
 21
174.2997289057427
 31
0.0
  0
LINE
  5
8C
330
1F
100
AcDbEntity
  8
0
  6
Continuous
 62
     7
100
AcDbLine
 10
139.9000000000002
 20
154.7997289057427
 30
0.0
 11
139.9000000000002
 21
140.7997289057426
 31
0.0
  0
LINE
  5
8D
330
1F
100
AcDbEntity
  8
0
  6
Continuous
 62
     7
100
AcDbLine
 10
138.9
 20
174.2997289057427
 30
0.0
 11
137.9
 21
174.2997289057427
 31
0.0
  0
LINE
  5
8E
330
1F
100
AcDbEntity
  8
0
  6
Continuous
 62
     7
100
AcDbLine
 10
137.9000000000001
 20
157.2997289057426
 30
0.0
 11
137.9
 21
174.2997289057427
 31
0.0
  0
LINE
  5
8F
330
1F
100
AcDbEntity
  8
0
  6
Continuous
 62
     7
100
AcDbLine
 10
139.9000000000002
 20
140.7997289057426
 30
0.0
 11
137.9000000000002
 21
140.7997289057426
 31
0.0
  0
LINE
  5
90
330
1F
100
AcDbEntity
  8
0
  6
Continuous
 62
     7
100
AcDbLine
 10
165.9000000000001
 20
140.7997289057426
 30
0.0
 11
139.9000000000002
 21
140.7997289057426
 31
0.0
  0
LINE
  5
91
330
1F
100
AcDbEntity
  8
0
  6
Continuous
 62
     7
100
AcDbLine
 10
137.4000000000002
 20
140.7997289057426
 30
0.0
 11
137.9000000000002
 21
140.7997289057426
 31
0.0
  0
LINE
  5
92
330
1F
100
AcDbEntity
  8
0
  6
Continuous
 62
     7
100
AcDbLine
 10
162.9
 20
174.2997289057427
 30
0.0
 11
162.7259627408517
 21
174.2997289057427
 31
0.0
  0
LINE
  5
93
330
1F
100
AcDbEntity
  8
0
  6
Continuous
 62
     7
100
AcDbLine
 10
162.7080396371082
 20
174.2997289057427
 30
0.0
 11
162.7259627408517
 21
174.2997289057427
 31
0.0
  0
LINE
  5
94
330
1F
100
AcDbEntity
  8
0
  6
Continuous
 62
     7
100
AcDbLine
 10
162.3737172627571
 20
174.2997289057427
 30
0.0
 11
162.5262827372431
 21
174.2997289057427
 31
0.0
  0
LINE
  5
95
330
1F
100
AcDbEntity
  8
0
  6
Continuous
 62
     7
100
AcDbLine
 10
162.5262827372431
 20
174.2997289057427
 30
0.0
 11
162.7080396371082
 21
174.2997289057427
 31
0.0
  0
LINE
  5
96
330
1F
100
AcDbEntity
  8
0
  6
Continuous
 62
     7
100
AcDbLine
 10
162.1500000000001
 20
164.7997289057427
 30
0.0
 11
162.15
 21
174.2997289057427
 31
0.0
  0
LINE
  5
97
330
1F
100
AcDbEntity
  8
0
  6
Continuous
 62
     7
100
AcDbLine
 10
163.9000000000001
 20
174.2997289057427
 30
0.0
 11
163.9000000000001
 21
157.2997289057427
 31
0.0
  0
LINE
  5
98
330
1F
100
AcDbEntity
  8
0
  6
Continuous
 62
     7
100
AcDbLine
 10
162.9000000000001
 20
164.7997289057427
 30
0.0
 11
162.9
 21
174.2997289057427
 31
0.0
  0
LINE
  5
99
330
1F
100
AcDbEntity
  8
0
  6
Continuous
 62
     7
100
AcDbLine
 10
165.9000000000001
 20
157.2997289057427
 30
0.0
 11
163.9000000000001
 21
157.2997289057427
 31
0.0
  0
LINE
  5
9A
330
1F
100
AcDbEntity
  8
0
  6
Continuous
 62
     7
100
AcDbLine
 10
165.9000000000001
 20
174.2997289057427
 30
0.0
 11
165.9000000000001
 21
157.2997289057427
 31
0.0
  0
LINE
  5
9B
330
1F
100
AcDbEntity
  8
0
  6
Continuous
 62
     7
100
AcDbLine
 10
163.9000000000001
 20
174.2997289057427
 30
0.0
 11
165.9000000000001
 21
174.2997289057427
 31
0.0
  0
LINE
  5
9C
330
1F
100
AcDbEntity
  8
0
  6
Continuous
 62
     7
100
AcDbLine
 10
163.9000000000001
 20
174.2997289057427
 30
0.0
 11
162.9
 21
174.2997289057427
 31
0.0
  0
LINE
  5
9D
330
1F
100
AcDbEntity
  8
0
  6
Continuous
 62
     7
100
AcDbLine
 10
167.9
 20
171.2997289057427
 30
0.0
 11
165.9000000000001
 21
171.2997289057427
 31
0.0
  0
LINE
  5
9E
330
1F
100
AcDbEntity
  8
0
  6
Continuous
 62
     7
100
AcDbLine
 10
165.9000000000001
 20
174.2997289057427
 30
0.0
 11
167.9000000000001
 21
174.2997289057427
 31
0.0
  0
LINE
  5
9F
330
1F
100
AcDbEntity
  8
0
  6
Continuous
 62
     7
100
AcDbLine
 10
167.9000000000001
 20
174.2997289057427
 30
0.0
 11
167.9
 21
171.7997289057427
 31
0.0
  0
LINE
  5
A0
330
1F
100
AcDbEntity
  8
0
  6
Continuous
 62
     7
100
AcDbLine
 10
162.15
 20
174.2997289057427
 30
0.0
 11
159.65
 21
174.2997289057427
 31
0.0
  0
LINE
  5
A1
330
1F
100
AcDbEntity
  8
0
  6
Continuous
 62
     7
100
AcDbLine
 10
162.3737172627571
 20
174.2997289057427
 30
0.0
 11
162.15
 21
174.2997289057427
 31
0.0
  0
LINE
  5
A2
330
1F
100
AcDbEntity
  8
0
  6
Continuous
 62
     7
100
AcDbLine
 10
167.9
 20
171.2997289057427
 30
0.0
 11
167.9
 21
171.7997289057427
 31
0.0
  0
LINE
  5
A3
330
1F
100
AcDbEntity
  8
0
  6
Continuous
 62
     7
100
AcDbLine
 10
135.9000000000001
 20
154.7997289057427
 30
0.0
 11
135.9000000000001
 21
140.7997289057426
 31
0.0
  0
LINE
  5
A4
330
1F
100
AcDbEntity
  8
0
  6
Continuous
 62
     7
100
AcDbLine
 10
138.4000000000002
 20
154.7997289057427
 30
0.0
 11
138.4000000000002
 21
140.7997289057426
 31
0.0
  0
LINE
  5
A5
330
1F
100
AcDbEntity
  8
0
  6
Continuous
 62
     7
100
AcDbLine
 10
136.9000000000002
 20
140.7997289057426
 30
0.0
 11
137.4000000000002
 21
140.7997289057426
 31
0.0
  0
LINE
  5
A6
330
1F
100
AcDbEntity
  8
0
  6
Continuous
 62
     7
100
AcDbLine
 10
136.9000000000002
 20
140.7997289057426
 30
0.0
 11
135.9000000000001
 21
140.7997289057426
 31
0.0
  0
LINE
  5
A7
330
1F
100
AcDbEntity
  8
1
  6
Continuous
 62
     7
100
AcDbLine
 10
0.0
 20
0.0
 30
0.0
 11
0.0
 21
297.0000000000001
 31
0.0
  0
LINE
  5
A8
330
1F
100
AcDbEntity
  8
1
  6
Continuous
 62
     7
100
AcDbLine
 10
21.00000000000009
 20
5.0
 30
0.0
 11
205.0000000000001
 21
4.99999999999989
 31
0.0
  0
LINE
  5
A9
330
1F
100
AcDbEntity
  8
1
  6
Continuous
 62
     7
100
AcDbLine
 10
21.00000000000011
 20
20.0
 30
0.0
 11
21.00000000000009
 21
5.0
 31
0.0
  0
LINE
  5
AA
330
1F
100
AcDbEntity
  8
1
  6
Continuous
 62
     7
100
AcDbLine
 10
161.0000000000001
 20
20.0
 30
0.0
 11
161.0000000000001
 21
5.0
 31
0.0
  0
LINE
  5
AB
102
{ACAD_REACTORS
330
3CE
102
}
330
1F
100
AcDbEntity
  8
1
  6
Continuous
 62
     7
100
AcDbLine
 10
194.0096340220762
 20
10.07749983983263
 30
0.0
 11
194.0096340220762
 21
14.92250016016737
 31
0.0
  0
LINE
  5
AC
102
{ACAD_REACTORS
330
3CE
102
}
330
1F
100
AcDbEntity
  8
1
  6
Continuous
 62
     7
100
AcDbLine
 10
195.8428748399059
 20
10.55800208038033
 30
0.0
 11
194.5095415065727
 21
9.78877131114973
 31
0.0
  0
LINE
  5
AD
102
{ACAD_REACTORS
330
3CE
102
}
330
1F
100
AcDbEntity
  8
1
  6
Continuous
 62
     7
100
AcDbLine
 10
194.6763006887428
 20
10.65463653264794
 30
0.0
 11
195.5097265375796
 21
11.13545913774624
 31
0.0
  0
LINE
  5
AE
102
{ACAD_REACTORS
330
3CE
102
}
330
1F
100
AcDbEntity
  8
1
  6
Continuous
 62
     7
100
AcDbLine
 10
194.6763006887428
 20
12.16666666666663
 30
0.0
 11
194.6763006887428
 21
10.65463653264794
 31
0.0
  0
LINE
  5
AF
102
{ACAD_REACTORS
330
3CE
102
}
330
1F
100
AcDbEntity
  8
1
  6
Continuous
 62
     7
100
AcDbLine
 10
195.6763006887428
 20
12.16666666666663
 30
0.0
 11
194.6763006887428
 21
12.16666666666663
 31
0.0
  0
LINE
  5
B0
102
{ACAD_REACTORS
330
3CE
102
}
330
1F
100
AcDbEntity
  8
1
  6
Continuous
 62
     7
100
AcDbLine
 10
194.6763006887428
 20
12.83333333333326
 30
0.0
 11
195.6763006887428
 21
12.83333333333326
 31
0.0
  0
LINE
  5
B1
102
{ACAD_REACTORS
330
3CE
102
}
330
1F
100
AcDbEntity
  8
1
  6
Continuous
 62
     7
100
AcDbLine
 10
194.6763006887428
 20
14.34536346735195
 30
0.0
 11
194.6763006887428
 21
12.83333333333326
 31
0.0
  0
LINE
  5
B2
102
{ACAD_REACTORS
330
3CE
102
}
330
1F
100
AcDbEntity
  8
1
  6
Continuous
 62
     7
100
AcDbLine
 10
195.5097265375796
 20
13.86454086225376
 30
0.0
 11
194.6763006887428
 21
14.34536346735195
 31
0.0
  0
LINE
  5
B3
102
{ACAD_REACTORS
330
3CE
102
}
330
1F
100
AcDbEntity
  8
1
  6
Continuous
 62
     7
100
AcDbLine
 10
194.5095415065727
 20
15.21122868885027
 30
0.0
 11
195.8428748399059
 21
14.44199791961944
 31
0.0
  0
LINE
  5
B4
102
{ACAD_REACTORS
330
3CF
102
}
330
1F
100
AcDbEntity
  8
1
  6
Continuous
 62
     7
100
AcDbLine
 10
187.3429673554094
 20
10.84673060906323
 30
0.0
 11
187.3429673554094
 21
14.15326939093666
 31
0.0
  0
LINE
  5
B5
102
{ACAD_REACTORS
330
3CF
102
}
330
1F
100
AcDbEntity
  8
1
  6
Continuous
 62
     7
100
AcDbLine
 10
188.0096340220761
 20
11.0392519172633
 30
0.0
 11
188.0096340220761
 21
10.84673060906323
 31
0.0
  0
LINE
  5
B6
102
{ACAD_REACTORS
330
3CF
102
}
330
1F
100
AcDbEntity
  8
1
  6
Continuous
 62
     7
100
AcDbLine
 10
188.0096340220761
 20
14.15326939093666
 30
0.0
 11
188.0096340220761
 21
11.0392519172633
 31
0.0
  0
LINE
  5
B7
102
{ACAD_REACTORS
330
3D0
102
}
330
1F
100
AcDbEntity
  8
1
  6
Continuous
 62
     7
100
AcDbLine
 10
191.1763932042462
 20
8.44261746499581
 30
0.0
 11
189.0098190530831
 21
9.69256409066691
 31
0.0
  0
LINE
  5
B8
102
{ACAD_REACTORS
330
3D0
102
}
330
1F
100
AcDbEntity
  8
1
  6
Continuous
 62
     7
100
AcDbLine
 10
189.3429673554094
 20
10.2700211480327
 30
0.0
 11
191.5095415065727
 21
9.0200745223616
 31
0.0
  0
LINE
  5
B9
102
{ACAD_REACTORS
330
3D0
102
}
330
1F
100
AcDbEntity
  8
1
  6
Continuous
 62
     7
100
AcDbLine
 10
189.3429673554094
 20
14.92250016016737
 30
0.0
 11
189.3429673554094
 21
10.2700211480327
 31
0.0
  0
LINE
  5
BA
102
{ACAD_REACTORS
330
3D0
102
}
330
1F
100
AcDbEntity
  8
1
  6
Continuous
 62
     7
100
AcDbLine
 10
188.6763006887428
 20
10.27002114803258
 30
0.0
 11
188.6763006887428
 21
14.92250016016737
 31
0.0
  0
LINE
  5
BB
102
{ACAD_REACTORS
330
3CD
102
}
330
1F
100
AcDbEntity
  8
1
  6
Continuous
 62
     7
100
AcDbLine
 10
192.8485336717861
 20
15.86370041827229
 30
0.0
 11
191.6763006887428
 21
13.83333333333326
 31
0.0
  0
LINE
  5
BC
102
{ACAD_REACTORS
330
3CD
102
}
330
1F
100
AcDbEntity
  8
1
  6
Continuous
 62
     7
100
AcDbLine
 10
193.3429673554094
 20
9.3082690706018
 30
0.0
 11
193.3429673554094
 21
15.73121731203457
 31
0.0
  0
LINE
  5
BD
102
{ACAD_REACTORS
330
3CD
102
}
330
1F
100
AcDbEntity
  8
1
  6
Continuous
 62
     7
100
AcDbLine
 10
192.6763006887428
 20
12.5
 30
0.0
 11
192.6763006887428
 21
9.3082690706018
 31
0.0
  0
LINE
  5
BE
102
{ACAD_REACTORS
330
3CD
102
}
330
1F
100
AcDbEntity
  8
1
  6
Continuous
 62
     7
100
AcDbLine
 10
190.6763006887428
 20
10.84758507263291
 30
0.0
 11
190.6763006887428
 21
12.5
 31
0.0
  0
LINE
  5
BF
102
{ACAD_REACTORS
330
3CD
102
}
330
1F
100
AcDbEntity
  8
1
  6
Continuous
 62
     7
100
AcDbLine
 10
190.0096340220761
 20
12.5
 30
0.0
 11
190.0096340220761
 21
10.84758507263291
 31
0.0
  0
LINE
  5
C0
102
{ACAD_REACTORS
330
3CD
102
}
330
1F
100
AcDbEntity
  8
1
  6
Continuous
 62
     7
100
AcDbLine
 10
190.5040677056995
 20
15.86370041827229
 30
0.0
 11
191.6763006887428
 21
13.83333333333326
 31
0.0
  0
LINE
  5
C1
102
{ACAD_REACTORS
330
3CD
102
}
330
1F
100
AcDbEntity
  8
1
  6
Continuous
 62
     7
100
AcDbLine
 10
190.0096340220761
 20
12.5
 30
0.0
 11
190.0096340220761
 21
15.73121731203457
 31
0.0
  0
LINE
  5
C2
330
1F
100
AcDbEntity
  8
1
  6
Continuous
 62
     7
100
AcDbLine
 10
191.6763006887428
 20
7.5
 30
0.0
 11
183.2598654136012
 21
12.35563573565855
 31
0.0
  0
LINE
  5
C3
330
1F
100
AcDbEntity
  8
1
  6
Continuous
 62
     7
100
AcDbLine
 10
200.0927359638843
 20
12.35563573565855
 30
0.0
 11
191.6763006887428
 21
7.5
 31
0.0
  0
LINE
  5
C4
330
1F
100
AcDbEntity
  8
1
  6
Continuous
 62
     7
100
AcDbLine
 10
191.6763006887428
 20
17.5
 30
0.0
 11
200.0927359638843
 21
12.64436426434133
 31
0.0
  0
LINE
  5
C5
330
1F
100
AcDbEntity
  8
1
  6
Continuous
 62
     7
100
AcDbLine
 10
183.2598654136012
 20
12.64436426434133
 30
0.0
 11
191.6763006887428
 21
17.5
 31
0.0
  0
LINE
  5
C6
102
{ACAD_REACTORS
330
3CD
102
}
330
1F
100
AcDbEntity
  8
1
  6
Continuous
 62
     7
100
AcDbLine
 10
190.6763006887428
 20
14.23205080756884
 30
0.0
 11
190.6763006887428
 21
12.5
 31
0.0
  0
LINE
  5
C7
102
{ACAD_REACTORS
330
3CD
102
}
330
1F
100
AcDbEntity
  8
1
  6
Continuous
 62
     7
100
AcDbLine
 10
191.5319631214453
 20
12.75
 30
0.0
 11
190.6763006887428
 21
14.23205080756884
 31
0.0
  0
LINE
  5
C8
102
{ACAD_REACTORS
330
3CD
102
}
330
1F
100
AcDbEntity
  8
1
  6
Continuous
 62
     7
100
AcDbLine
 10
192.6763006887428
 20
14.23205080756884
 30
0.0
 11
191.8206382560402
 21
12.75
 31
0.0
  0
LINE
  5
C9
102
{ACAD_REACTORS
330
3CD
102
}
330
1F
100
AcDbEntity
  8
1
  6
Continuous
 62
     7
100
AcDbLine
 10
192.6763006887428
 20
12.5
 30
0.0
 11
192.6763006887428
 21
14.23205080756884
 31
0.0
  0
LINE
  5
CA
330
1F
100
AcDbEntity
  8
1
  6
Continuous
 62
     7
100
AcDbLine
 10
178.3526013774855
 20
20.0
 30
0.0
 11
178.3526013774855
 21
5.0
 31
0.0
  0
LINE
  5
CB
330
1F
100
AcDbEntity
  8
1
  6
Continuous
 62
     7
100
AcDbLine
 10
21.00000000000011
 20
20.0
 30
0.0
 11
205.0000000000001
 21
20.0
 31
0.0
  0
LINE
  5
CC
330
1F
100
AcDbEntity
  8
1
  6
Continuous
 62
     7
100
AcDbLine
 10
51.00000000000011
 20
20.0
 30
0.0
 11
51.00000000000011
 21
5.0
 31
0.0
  0
LINE
  5
CD
330
1F
100
AcDbEntity
  8
1
  6
Continuous
 62
     7
100
AcDbLine
 10
21.00000000000011
 20
12.5
 30
0.0
 11
51.00000000000011
 21
12.5
 31
0.0
  0
LINE
  5
CE
330
1F
100
AcDbEntity
  8
1
  6
Continuous
 62
     7
100
AcDbLine
 10
0.0
 20
148.4999999999998
 30
0.0
 11
15.0
 21
148.4999999999998
 31
0.0
  0
LINE
  5
CF
330
1F
100
AcDbEntity
  8
1
  6
Continuous
 62
     7
100
AcDbLine
 10
210.0000000000001
 20
0.0
 30
0.0
 11
210.0000000000001
 21
297.0000000000001
 31
0.0
  0
LINE
  5
D0
330
1F
100
AcDbEntity
  8
1
  6
Continuous
 62
     7
100
AcDbLine
 10
0.0
 20
0.0
 30
0.0
 11
210.0000000000001
 21
0.0
 31
0.0
  0
LINE
  5
D1
330
1F
100
AcDbEntity
  8
1
  6
Continuous
 62
     7
100
AcDbLine
 10
0.0
 20
297.0000000000001
 30
0.0
 11
0.0
 21
0.0
 31
0.0
  0
LINE
  5
D2
330
1F
100
AcDbEntity
  8
1
  6
Continuous
 62
     7
100
AcDbLine
 10
210.0000000000001
 20
297.0000000000001
 30
0.0
 11
0.0
 21
297.0000000000001
 31
0.0
  0
LINE
  5
D3
330
1F
100
AcDbEntity
  8
1
  6
Continuous
 62
     7
100
AcDbLine
 10
205.0000000000001
 20
4.99999999999989
 30
0.0
 11
205.0000000000001
 21
292.0000000000001
 31
0.0
  0
LINE
  5
D4
330
1F
100
AcDbEntity
  8
1
  6
Continuous
 62
     7
100
AcDbLine
 10
205.0000000000001
 20
292.0000000000001
 30
0.0
 11
21.00000000000011
 21
292.0000000000001
 31
0.0
  0
LINE
  5
D5
330
1F
100
AcDbEntity
  8
1
  6
Continuous
 62
     7
100
AcDbLine
 10
21.00000000000011
 20
292.0000000000001
 30
0.0
 11
21.00000000000009
 21
5.0
 31
0.0
  0
LINE
  5
D6
330
1F
100
AcDbEntity
  8
1
  6
Continuous
 62
     7
100
AcDbLine
 10
21.00000000000009
 20
40.0
 30
0.0
 11
21.00000000000009
 21
5.0
 31
0.0
  0
LINE
  5
D7
330
1F
100
AcDbEntity
  8
1
  6
Continuous
 62
     7
100
AcDbLine
 10
21.00000000000009
 20
25.0
 30
0.0
 11
205.0000000000001
 21
25.0
 31
0.0
  0
LINE
  5
D8
330
1F
100
AcDbEntity
  8
1
  6
Continuous
 62
     7
100
AcDbLine
 10
28.00000000000009
 20
20.0
 30
0.0
 11
28.00000000000009
 21
25.0
 31
0.0
  0
LINE
  5
D9
330
1F
100
AcDbEntity
  8
1
  6
Continuous
 62
     7
100
AcDbLine
 10
46.0000000000002
 20
20.0
 30
0.0
 11
46.0000000000002
 21
25.0
 31
0.0
  0
LINE
  5
DA
330
1F
100
AcDbEntity
  8
1
  6
Continuous
 62
     7
100
AcDbLine
 10
21.00000000000009
 20
30.0
 30
0.0
 11
205.0000000000001
 21
30.0
 31
0.0
  0
LINE
  5
DB
330
1F
100
AcDbEntity
  8
1
  6
Continuous
 62
     7
100
AcDbLine
 10
28.00000000000009
 20
25.0
 30
0.0
 11
28.00000000000009
 21
30.0
 31
0.0
  0
LINE
  5
DC
330
1F
100
AcDbEntity
  8
1
  6
Continuous
 62
     7
100
AcDbLine
 10
46.0000000000002
 20
25.0
 30
0.0
 11
46.0000000000002
 21
30.0
 31
0.0
  0
LINE
  5
DD
330
1F
100
AcDbEntity
  8
1
  6
Continuous
 62
     7
100
AcDbLine
 10
21.00000000000009
 20
35.0
 30
0.0
 11
205.0000000000001
 21
35.0
 31
0.0
  0
LINE
  5
DE
330
1F
100
AcDbEntity
  8
1
  6
Continuous
 62
     7
100
AcDbLine
 10
28.00000000000009
 20
30.0
 30
0.0
 11
28.00000000000009
 21
35.0
 31
0.0
  0
LINE
  5
DF
330
1F
100
AcDbEntity
  8
1
  6
Continuous
 62
     7
100
AcDbLine
 10
46.0000000000002
 20
30.0
 30
0.0
 11
46.0000000000002
 21
35.0
 31
0.0
  0
LINE
  5
E0
330
1F
100
AcDbEntity
  8
1
  6
Continuous
 62
     7
100
AcDbLine
 10
21.00000000000009
 20
40.0
 30
0.0
 11
205.0000000000001
 21
40.0
 31
0.0
  0
LINE
  5
E1
330
1F
100
AcDbEntity
  8
1
  6
Continuous
 62
     7
100
AcDbLine
 10
28.00000000000009
 20
35.0
 30
0.0
 11
28.00000000000009
 21
40.0
 31
0.0
  0
LINE
  5
E2
330
1F
100
AcDbEntity
  8
1
  6
Continuous
 62
     7
100
AcDbLine
 10
46.0000000000002
 20
35.0
 30
0.0
 11
46.0000000000002
 21
40.0
 31
0.0
  0
LINE
  5
E3
102
{ACAD_REACTORS
330
3D1
102
}
330
1F
100
AcDbEntity
  8
1
  6
Continuous
 62
     2
100
AcDbLine
 10
69.49999999999997
 20
76.95935674649505
 30
0.0
 11
70.99999999999997
 21
76.95935674649505
 31
0.0
  0
LINE
  5
E4
102
{ACAD_REACTORS
330
3D1
102
}
330
1F
100
AcDbEntity
  8
1
  6
Continuous
 62
     2
100
AcDbLine
 10
70.24999999999997
 20
74.95935674649505
 30
0.0
 11
69.49999999999997
 21
76.95935674649505
 31
0.0
  0
LINE
  5
E5
102
{ACAD_REACTORS
330
3D1
102
}
330
1F
100
AcDbEntity
  8
1
  6
Continuous
 62
     2
100
AcDbLine
 10
70.99999999999997
 20
76.95935674649505
 30
0.0
 11
70.24999999999997
 21
74.95935674649505
 31
0.0
  0
LINE
  5
E6
102
{ACAD_REACTORS
330
3D2
102
}
330
1F
100
AcDbEntity
  8
1
  6
Continuous
 62
     2
100
AcDbLine
 10
85.70000000000007
 20
76.95935674649505
 30
0.0
 11
84.95000000000007
 21
74.95935674649505
 31
0.0
  0
LINE
  5
E7
102
{ACAD_REACTORS
330
3D2
102
}
330
1F
100
AcDbEntity
  8
1
  6
Continuous
 62
     2
100
AcDbLine
 10
84.95000000000007
 20
74.95935674649505
 30
0.0
 11
84.20000000000007
 21
76.95935674649505
 31
0.0
  0
LINE
  5
E8
102
{ACAD_REACTORS
330
3D2
102
}
330
1F
100
AcDbEntity
  8
1
  6
Continuous
 62
     2
100
AcDbLine
 10
84.20000000000007
 20
76.95935674649505
 30
0.0
 11
85.70000000000007
 21
76.95935674649505
 31
0.0
  0
LINE
  5
E9
330
1F
100
AcDbEntity
  8
0
  6
Continuous
 62
     7
100
AcDbLine
 10
138.9000000000002
 20
154.7997289057427
 30
0.0
 11
138.9000000000002
 21
140.7997289057426
 31
0.0
  0
LINE
  5
EA
330
1F
100
AcDbEntity
  8
0
  6
Continuous
 62
     7
100
AcDbLine
 10
136.9000000000002
 20
154.7997289057427
 30
0.0
 11
136.9000000000002
 21
140.7997289057426
 31
0.0
  0
LINE
  5
EB
330
1F
100
AcDbEntity
  8
0
  6
Continuous
 62
     7
100
AcDbLine
 10
79.35000000000016
 20
84.45935674649486
 30
0.0
 11
81.85000000000016
 21
84.45935674649486
 31
0.0
  0
LINE
  5
EC
330
1F
100
AcDbEntity
  8
0
  6
Continuous
 62
     7
100
AcDbLine
 10
75.35000000000011
 20
85.85935674649461
 30
0.0
 11
79.85000000000016
 21
85.85935674649461
 31
0.0
  0
LINE
  5
ED
330
1F
100
AcDbEntity
  8
0
  6
Continuous
 62
     7
100
AcDbLine
 10
79.85000000000016
 20
86.90935674649462
 30
0.0
 11
81.85000000000016
 21
86.90935674649462
 31
0.0
  0
LINE
  5
EE
330
1F
100
AcDbEntity
  8
0
  6
Continuous
 62
     7
100
AcDbLine
 10
79.85000000000016
 20
84.95935674649486
 30
0.0
 11
79.85000000000016
 21
85.85935674649461
 31
0.0
  0
LINE
  5
EF
330
1F
100
AcDbEntity
  8
0
  6
Continuous
 62
     7
100
AcDbLine
 10
79.85000000000016
 20
87.40935674649462
 30
0.0
 11
79.85000000000016
 21
86.90935674649462
 31
0.0
  0
LINE
  5
F0
330
1F
100
AcDbEntity
  8
0
  6
Continuous
 62
     7
100
AcDbLine
 10
79.85000000000016
 20
85.85935674649461
 30
0.0
 11
79.85000000000016
 21
86.90935674649462
 31
0.0
  0
LINE
  5
F1
330
1F
100
AcDbEntity
  8
0
  6
Continuous
 62
     7
100
AcDbLine
 10
81.85000000000016
 20
95.50935674649465
 30
0.0
 11
80.75000000000014
 21
95.50935674649465
 31
0.0
  0
LINE
  5
F2
330
1F
100
AcDbEntity
  8
0
  6
Continuous
 62
     7
100
AcDbLine
 10
81.35000000000016
 20
85.65935674649462
 30
0.0
 11
81.35000000000016
 21
84.95935674649486
 31
0.0
  0
LINE
  5
F3
330
1F
100
AcDbEntity
  8
0
  6
Continuous
 62
     7
100
AcDbLine
 10
80.75000000000014
 20
96.00935674649465
 30
0.0
 11
80.75000000000014
 21
95.50935674649465
 31
0.0
  0
LINE
  5
F4
330
1F
100
AcDbEntity
  8
0
  6
Continuous
 62
     7
100
AcDbLine
 10
80.75000000000014
 20
96.00935674649465
 30
0.0
 11
80.75000000000014
 21
96.8093567464946
 31
0.0
  0
LINE
  5
F5
330
1F
100
AcDbEntity
  8
0
  6
Continuous
 62
     7
100
AcDbLine
 10
81.10000000000005
 20
88.10935674649461
 30
0.0
 11
81.35000000000005
 21
88.10935674649461
 31
0.0
  0
LINE
  5
F6
330
1F
100
AcDbEntity
  8
0
  6
Continuous
 62
     7
100
AcDbLine
 10
81.85000000000016
 20
86.90935674649462
 30
0.0
 11
81.85000000000016
 21
87.60935674649464
 31
0.0
  0
LINE
  5
F7
330
1F
100
AcDbEntity
  8
0
  6
Continuous
 62
     7
100
AcDbLine
 10
81.85000000000016
 20
86.90935674649462
 30
0.0
 11
81.35000000000016
 21
87.40935674649462
 31
0.0
  0
LINE
  5
F8
330
1F
100
AcDbEntity
  8
0
  6
Continuous
 62
     7
100
AcDbLine
 10
81.35000000000016
 20
87.40935674649462
 30
0.0
 11
79.85000000000016
 21
87.40935674649462
 31
0.0
  0
LINE
  5
F9
330
1F
100
AcDbEntity
  8
0
  6
Continuous
 62
     7
100
AcDbLine
 10
75.50000000000009
 20
88.10935674649461
 30
0.0
 11
79.70000000000007
 21
88.10935674649461
 31
0.0
  0
LINE
  5
FA
330
1F
100
AcDbEntity
  8
0
  6
Continuous
 62
     7
100
AcDbLine
 10
81.85000000000016
 20
76.4593567464947
 30
0.0
 11
81.85000000000016
 21
74.45935674649482
 31
0.0
  0
LINE
  5
FB
330
1F
100
AcDbEntity
  8
0
  6
Continuous
 62
     7
100
AcDbLine
 10
79.65000000000012
 20
78.4593567464948
 30
0.0
 11
79.65000000000012
 21
76.45935674649472
 31
0.0
  0
LINE
  5
FC
330
1F
100
AcDbEntity
  8
0
  6
Continuous
 62
     7
100
AcDbLine
 10
74.35000000000016
 20
106.4593567464949
 30
0.0
 11
74.35000000000016
 21
108.4593567464948
 31
0.0
  0
LINE
  5
FD
330
1F
100
AcDbEntity
  8
0
  6
Continuous
 62
     7
100
AcDbLine
 10
75.5500000000001
 20
76.45935674649475
 30
0.0
 11
79.65000000000012
 21
76.45935674649472
 31
0.0
  0
LINE
  5
FE
330
1F
100
AcDbEntity
  8
0
  6
Continuous
 62
     7
100
AcDbLine
 10
74.35000000000016
 20
106.4593567464949
 30
0.0
 11
75.5500000000001
 21
106.4593567464948
 31
0.0
  0
LINE
  5
FF
330
1F
100
AcDbEntity
  8
0
  6
Continuous
 62
     7
100
AcDbLine
 10
75.85000000000011
 20
84.45935674649486
 30
0.0
 11
79.35000000000016
 21
84.45935674649486
 31
0.0
  0
LINE
  5
100
330
1F
100
AcDbEntity
  8
0
  6
Continuous
 62
     7
100
AcDbLine
 10
75.5500000000001
 20
78.4593567464948
 30
0.0
 11
79.65000000000012
 21
78.4593567464948
 31
0.0
  0
LINE
  5
101
330
1F
100
AcDbEntity
  8
0
  6
Continuous
 62
     7
100
AcDbLine
 10
74.45000000000013
 20
98.55935674649463
 30
0.0
 11
74.45000000000013
 21
102.4593567464949
 31
0.0
  0
LINE
  5
102
330
1F
100
AcDbEntity
  8
0
  6
Continuous
 62
     7
100
AcDbLine
 10
92.30000000000015
 20
100.1150965234108
 30
0.0
 11
92.30000000000015
 21
82.80361696957878
 31
0.0
  0
LINE
  5
103
330
1F
100
AcDbEntity
  8
0
  6
Continuous
 62
     7
100
AcDbLine
 10
90.80000000000015
 20
96.00935674649462
 30
0.0
 11
90.80000000000015
 21
102.4593567464948
 31
0.0
  0
LINE
  5
104
330
1F
100
AcDbEntity
  8
0
  6
Continuous
 62
     7
100
AcDbLine
 10
90.80000000000015
 20
84.95935674649486
 30
0.0
 11
90.8000000000001
 21
86.90935674649462
 31
0.0
  0
LINE
  5
105
330
1F
100
AcDbEntity
  8
0
  6
Continuous
 62
     7
100
AcDbLine
 10
90.3000000000001
 20
87.40935674649462
 30
0.0
 11
85.10000000000016
 21
87.40935674649462
 31
0.0
  0
LINE
  5
106
330
1F
100
AcDbEntity
  8
0
  6
Continuous
 62
     7
100
AcDbLine
 10
83.50000000000014
 20
94.80935674649466
 30
0.0
 11
83.50000000000014
 21
93.20935674649463
 31
0.0
  0
LINE
  5
107
330
1F
100
AcDbEntity
  8
0
  6
Continuous
 62
     7
100
AcDbLine
 10
84.00000000000014
 20
95.30935674649466
 30
0.0
 11
84.00000000000014
 21
87.60935674649464
 31
0.0
  0
LINE
  5
108
330
1F
100
AcDbEntity
  8
0
  6
Continuous
 62
     7
100
AcDbLine
 10
90.8000000000001
 20
86.90935674649462
 30
0.0
 11
90.80000000000015
 21
96.00935674649462
 31
0.0
  0
LINE
  5
109
330
1F
100
AcDbEntity
  8
0
  6
Continuous
 62
     7
100
AcDbLine
 10
84.60000000000016
 20
86.90935674649462
 30
0.0
 11
84.60000000000016
 21
86.65935674649462
 31
0.0
  0
LINE
  5
10A
330
1F
100
AcDbEntity
  8
0
  6
Continuous
 62
     7
100
AcDbLine
 10
84.10000000000016
 20
86.15935674649462
 30
0.0
 11
81.85000000000016
 21
86.15935674649462
 31
0.0
  0
LINE
  5
10B
330
1F
100
AcDbEntity
  8
0
  6
Continuous
 62
     7
100
AcDbLine
 10
84.00000000000014
 20
87.60935674649464
 30
0.0
 11
81.85000000000016
 21
87.60935674649464
 31
0.0
  0
LINE
  5
10C
330
1F
100
AcDbEntity
  8
0
  6
Continuous
 62
     7
100
AcDbLine
 10
81.85000000000016
 20
84.45935674649486
 30
0.0
 11
90.30000000000015
 21
84.45935674649486
 31
0.0
  0
LINE
  5
10D
330
1F
100
AcDbEntity
  8
0
  6
Continuous
 62
     7
100
AcDbLine
 10
83.50000000000014
 20
93.20935674649463
 30
0.0
 11
83.50000000000014
 21
89.70935674649463
 31
0.0
  0
LINE
  5
10E
330
1F
100
AcDbEntity
  8
0
  6
Continuous
 62
     7
100
AcDbLine
 10
83.50000000000014
 20
89.70935674649463
 30
0.0
 11
83.50000000000014
 21
88.10935674649464
 31
0.0
  0
LINE
  5
10F
330
1F
100
AcDbEntity
  8
0
  6
Continuous
 62
     7
100
AcDbLine
 10
83.50000000000014
 20
93.20935674649463
 30
0.0
 11
82.8000000000001
 21
93.20935674649463
 31
0.0
  0
LINE
  5
110
330
1F
100
AcDbEntity
  8
0
  6
Continuous
 62
     7
100
AcDbLine
 10
83.50000000000014
 20
89.70935674649463
 30
0.0
 11
82.8000000000001
 21
89.70935674649463
 31
0.0
  0
LINE
  5
111
330
1F
100
AcDbEntity
  8
0
  6
Continuous
 62
     7
100
AcDbLine
 10
82.8000000000001
 20
93.20935674649463
 30
0.0
 11
82.8000000000001
 21
89.70935674649463
 31
0.0
  0
LINE
  5
112
330
1F
100
AcDbEntity
  8
0
  6
Continuous
 62
     7
100
AcDbLine
 10
83.50000000000014
 20
88.10935674649464
 30
0.0
 11
84.00000000000014
 21
87.60935674649464
 31
0.0
  0
LINE
  5
113
330
1F
100
AcDbEntity
  8
0
  6
Continuous
 62
     7
100
AcDbLine
 10
80.85000000000016
 20
108.4593567464948
 30
0.0
 11
80.85000000000016
 21
106.4593567464948
 31
0.0
  0
LINE
  5
114
330
1F
100
AcDbEntity
  8
0
  6
Continuous
 62
     7
100
AcDbLine
 10
89.05000000000021
 20
106.4593567464949
 30
0.0
 11
89.05000000000021
 21
108.4593567464948
 31
0.0
  0
LINE
  5
115
330
1F
100
AcDbEntity
  8
0
  6
Continuous
 62
     7
100
AcDbLine
 10
75.5500000000001
 20
104.4593567464948
 30
0.0
 11
75.5500000000001
 21
106.4593567464948
 31
0.0
  0
LINE
  5
116
330
1F
100
AcDbEntity
  8
0
  6
Continuous
 62
     7
100
AcDbLine
 10
79.65000000000012
 20
106.4593567464948
 30
0.0
 11
79.65000000000012
 21
104.4593567464948
 31
0.0
  0
LINE
  5
117
330
1F
100
AcDbEntity
  8
0
  6
Continuous
 62
     7
100
AcDbLine
 10
90.25000000000014
 20
104.4593567464948
 30
0.0
 11
90.25000000000014
 21
106.4593567464948
 31
0.0
  0
LINE
  5
118
330
1F
100
AcDbEntity
  8
0
  6
Continuous
 62
     7
100
AcDbLine
 10
79.65000000000012
 20
106.4593567464948
 30
0.0
 11
80.85000000000016
 21
106.4593567464948
 31
0.0
  0
LINE
  5
119
330
1F
100
AcDbEntity
  8
0
  6
Continuous
 62
     7
100
AcDbLine
 10
92.30000000000015
 20
104.4593567464948
 30
0.0
 11
92.30000000000015
 21
102.8036169695788
 31
0.0
  0
LINE
  5
11A
330
1F
100
AcDbEntity
  8
0
  6
Continuous
 62
     7
100
AcDbLine
 10
90.25000000000014
 20
106.4593567464948
 30
0.0
 11
92.30000000000015
 21
106.4593567464948
 31
0.0
  0
LINE
  5
11B
330
1F
100
AcDbEntity
  8
0
  6
Continuous
 62
     7
100
AcDbLine
 10
89.05000000000021
 20
106.4593567464949
 30
0.0
 11
90.25000000000014
 21
106.4593567464948
 31
0.0
  0
LINE
  5
11C
330
1F
100
AcDbEntity
  8
0
  6
Continuous
 62
     7
100
AcDbLine
 10
75.5500000000001
 20
106.4593567464948
 30
0.0
 11
79.65000000000012
 21
106.4593567464948
 31
0.0
  0
LINE
  5
11D
330
1F
100
AcDbEntity
  8
0
  6
Continuous
 62
     7
100
AcDbLine
 10
92.30000000000015
 20
106.4593567464948
 30
0.0
 11
92.30000000000015
 21
104.4593567464948
 31
0.0
  0
LINE
  5
11E
330
1F
100
AcDbEntity
  8
0
  6
Continuous
 62
     7
100
AcDbLine
 10
92.30000000000015
 20
104.4593567464948
 30
0.0
 11
90.25000000000014
 21
104.4593567464948
 31
0.0
  0
LINE
  5
11F
330
1F
100
AcDbEntity
  8
0
  6
Continuous
 62
     7
100
AcDbLine
 10
79.65000000000012
 20
104.4593567464948
 30
0.0
 11
75.5500000000001
 21
104.4593567464948
 31
0.0
  0
LINE
  5
120
330
1F
100
AcDbEntity
  8
0
  6
Continuous
 62
     7
100
AcDbLine
 10
89.05000000000021
 20
108.4593567464948
 30
0.0
 11
80.85000000000016
 21
108.4593567464948
 31
0.0
  0
LINE
  5
121
330
1F
100
AcDbEntity
  8
0
  6
Continuous
 62
     7
100
AcDbLine
 10
62.90000000000012
 20
104.4593567464948
 30
0.0
 11
62.90000000000012
 21
106.4593567464949
 31
0.0
  0
LINE
  5
122
330
1F
100
AcDbEntity
  8
0
  6
Continuous
 62
     7
100
AcDbLine
 10
64.95000000000007
 20
106.4593567464948
 30
0.0
 11
66.15000000000012
 21
106.4593567464949
 31
0.0
  0
LINE
  5
123
330
1F
100
AcDbEntity
  8
0
  6
Continuous
 62
     7
100
AcDbLine
 10
66.15000000000012
 20
108.4593567464948
 30
0.0
 11
66.15000000000012
 21
106.4593567464949
 31
0.0
  0
LINE
  5
124
330
1F
100
AcDbEntity
  8
0
  6
Continuous
 62
     7
100
AcDbLine
 10
74.35000000000016
 20
108.4593567464948
 30
0.0
 11
66.15000000000012
 21
108.4593567464948
 31
0.0
  0
LINE
  5
125
330
1F
100
AcDbEntity
  8
0
  6
Continuous
 62
     7
100
AcDbLine
 10
64.95000000000007
 20
106.4593567464948
 30
0.0
 11
64.95000000000007
 21
104.4593567464948
 31
0.0
  0
LINE
  5
126
330
1F
100
AcDbEntity
  8
0
  6
Continuous
 62
     7
100
AcDbLine
 10
64.95000000000007
 20
106.4593567464948
 30
0.0
 11
62.90000000000012
 21
106.4593567464949
 31
0.0
  0
LINE
  5
127
330
1F
100
AcDbEntity
  8
0
  6
Continuous
 62
     7
100
AcDbLine
 10
92.58452365234828
 20
102.6223554121714
 30
0.0
 11
92.915476347652
 21
102.7766811884786
 31
0.0
  0
LINE
  5
128
330
1F
100
AcDbEntity
  8
0
  6
Continuous
 62
     7
100
AcDbLine
 10
93.20000000000013
 20
102.5954196310713
 30
0.0
 11
93.20000000000013
 21
101.9799158835421
 31
0.0
  0
LINE
  5
129
330
1F
100
AcDbEntity
  8
0
  6
Continuous
 62
     7
100
AcDbLine
 10
92.45671207721253
 20
101.6546159479188
 30
0.0
 11
93.04328792278775
 21
101.7846566821181
 31
0.0
  0
LINE
  5
12A
330
1F
100
AcDbEntity
  8
0
  6
Continuous
 62
     7
100
AcDbLine
 10
93.20000000000013
 20
100.9387976094475
 30
0.0
 11
93.20000000000013
 21
100.3232938619183
 31
0.0
  0
LINE
  5
12B
330
1F
100
AcDbEntity
  8
0
  6
Continuous
 62
     7
100
AcDbLine
 10
81.85000000000005
 20
94.8093567464946
 30
0.0
 11
81.85000000000016
 21
95.50935674649465
 31
0.0
  0
LINE
  5
12C
330
1F
100
AcDbEntity
  8
0
  6
Continuous
 62
     7
100
AcDbLine
 10
81.85000000000005
 20
94.8093567464946
 30
0.0
 11
83.50000000000014
 21
94.80935674649466
 31
0.0
  0
LINE
  5
12D
330
1F
100
AcDbEntity
  8
0
  6
Continuous
 62
     7
100
AcDbLine
 10
80.75000000000014
 20
95.50935674649465
 30
0.0
 11
80.75000000000014
 21
95.35935674649467
 31
0.0
  0
LINE
  5
12E
330
1F
100
AcDbEntity
  8
0
  6
Continuous
 62
     7
100
AcDbLine
 10
84.60000000000016
 20
96.25935674649465
 30
0.0
 11
84.60000000000016
 21
96.00935674649465
 31
0.0
  0
LINE
  5
12F
330
1F
100
AcDbEntity
  8
0
  6
Continuous
 62
     7
100
AcDbLine
 10
82.34999976687507
 20
95.30935674649466
 30
0.0
 11
84.00000000000014
 21
95.30935674649466
 31
0.0
  0
LINE
  5
130
330
1F
100
AcDbEntity
  8
0
  6
Continuous
 62
     7
100
AcDbLine
 10
82.34999976687507
 20
96.00935674649467
 30
0.0
 11
80.75000000000014
 21
96.00935674649465
 31
0.0
  0
LINE
  5
131
330
1F
100
AcDbEntity
  8
0
  6
Continuous
 62
     7
100
AcDbLine
 10
82.34999976687507
 20
95.30935674649466
 30
0.0
 11
82.34999976687507
 21
96.00935674649467
 31
0.0
  0
LINE
  5
132
330
1F
100
AcDbEntity
  8
0
  6
Continuous
 62
     7
100
AcDbLine
 10
81.60000000000005
 20
94.8093567464946
 30
0.0
 11
81.85000000000005
 21
94.8093567464946
 31
0.0
  0
LINE
  5
133
330
1F
100
AcDbEntity
  8
0
  6
Continuous
 62
     7
100
AcDbLine
 10
92.915476347652
 20
100.142032304511
 30
0.0
 11
92.58452365234828
 21
100.2963580808181
 31
0.0
  0
LINE
  5
134
330
1F
100
AcDbEntity
  8
0
  6
Continuous
 62
     7
100
AcDbLine
 10
85.10000000000016
 20
95.50935674649465
 30
0.0
 11
90.3000000000001
 21
95.50935674649465
 31
0.0
  0
LINE
  5
135
330
1F
100
AcDbEntity
  8
0
  6
Continuous
 62
     7
100
AcDbLine
 10
93.04328792278775
 20
101.1340568108715
 30
0.0
 11
92.45671207721253
 21
101.2640975450708
 31
0.0
  0
LINE
  5
136
330
1F
100
AcDbEntity
  8
0
  6
Continuous
 62
     7
100
AcDbLine
 10
81.85000000000005
 20
94.8093567464946
 30
0.0
 11
82.34999976687507
 21
95.30935674649466
 31
0.0
  0
LINE
  5
137
330
1F
100
AcDbEntity
  8
0
  6
Continuous
 62
     7
100
AcDbLine
 10
82.34999976687507
 20
96.00935674649467
 30
0.0
 11
81.85000000000016
 21
95.50935674649465
 31
0.0
  0
LINE
  5
138
330
1F
100
AcDbEntity
  8
0
  6
Continuous
 62
     7
100
AcDbLine
 10
84.00000000000014
 20
95.30935674649466
 30
0.0
 11
83.50000000000014
 21
94.80935674649466
 31
0.0
  0
LINE
  5
139
330
1F
100
AcDbEntity
  8
0
  6
Continuous
 62
     7
100
AcDbLine
 10
93.20000000000019
 20
80.93879760944752
 30
0.0
 11
93.20000000000019
 21
80.32329386191829
 31
0.0
  0
LINE
  5
13A
330
1F
100
AcDbEntity
  8
0
  6
Continuous
 62
     7
100
AcDbLine
 10
93.04328792278781
 20
81.13405681087151
 30
0.0
 11
92.45671207721253
 21
81.26409754507081
 31
0.0
  0
LINE
  5
13B
330
1F
100
AcDbEntity
  8
0
  6
Continuous
 62
     7
100
AcDbLine
 10
92.45671207721253
 20
81.65461594791877
 30
0.0
 11
93.04328792278781
 21
81.78465668211807
 31
0.0
  0
LINE
  5
13C
330
1F
100
AcDbEntity
  8
0
  6
Continuous
 62
     7
100
AcDbLine
 10
93.20000000000019
 20
82.5954196310713
 30
0.0
 11
93.20000000000019
 21
81.97991588354206
 31
0.0
  0
LINE
  5
13D
330
1F
100
AcDbEntity
  8
0
  6
Continuous
 62
     7
100
AcDbLine
 10
92.58452365234828
 20
82.62235541217144
 30
0.0
 11
92.915476347652
 21
82.7766811884786
 31
0.0
  0
LINE
  5
13E
330
1F
100
AcDbEntity
  8
0
  6
Continuous
 62
     7
100
AcDbLine
 10
92.91547634765206
 20
80.14203230451095
 30
0.0
 11
92.58452365234834
 21
80.29635808081811
 31
0.0
  0
LINE
  5
13F
330
1F
100
AcDbEntity
  8
0
  6
Continuous
 62
     7
100
AcDbLine
 10
92.30000000000015
 20
80.1150965234108
 30
0.0
 11
92.30000000000015
 21
78.45935674649475
 31
0.0
  0
LINE
  5
140
330
1F
100
AcDbEntity
  8
0
  6
Continuous
 62
     7
100
AcDbLine
 10
81.85000000000016
 20
74.45935674649482
 30
0.0
 11
88.05000000000021
 21
74.45935674649482
 31
0.0
  0
LINE
  5
141
330
1F
100
AcDbEntity
  8
0
  6
Continuous
 62
     7
100
AcDbLine
 10
88.05000000000021
 20
74.45935674649482
 30
0.0
 11
88.05000000000021
 21
76.45935674649482
 31
0.0
  0
LINE
  5
142
330
1F
100
AcDbEntity
  8
0
  6
Continuous
 62
     7
100
AcDbLine
 10
81.85000000000016
 20
76.4593567464947
 30
0.0
 11
79.65000000000012
 21
76.45935674649472
 31
0.0
  0
LINE
  5
143
330
1F
100
AcDbEntity
  8
0
  6
Continuous
 62
     7
100
AcDbLine
 10
92.30000000000015
 20
76.45935674649469
 30
0.0
 11
90.25000000000014
 21
76.45935674649475
 31
0.0
  0
LINE
  5
144
330
1F
100
AcDbEntity
  8
0
  6
Continuous
 62
     7
100
AcDbLine
 10
90.25000000000014
 20
76.45935674649475
 30
0.0
 11
88.05000000000021
 21
76.45935674649482
 31
0.0
  0
LINE
  5
145
330
1F
100
AcDbEntity
  8
0
  6
Continuous
 62
     7
100
AcDbLine
 10
83.50000000000014
 20
88.10935674649464
 30
0.0
 11
81.35000000000005
 21
88.10935674649461
 31
0.0
  0
LINE
  5
146
330
1F
100
AcDbEntity
  8
0
  6
Continuous
 62
     7
100
AcDbLine
 10
81.35000000000005
 20
88.10935674649461
 30
0.0
 11
81.35000000000016
 21
87.40935674649462
 31
0.0
  0
LINE
  5
147
330
1F
100
AcDbEntity
  8
0
  6
Continuous
 62
     7
100
AcDbLine
 10
90.25000000000014
 20
78.4593567464948
 30
0.0
 11
92.30000000000015
 21
78.45935674649475
 31
0.0
  0
LINE
  5
148
330
1F
100
AcDbEntity
  8
0
  6
Continuous
 62
     7
100
AcDbLine
 10
90.25000000000014
 20
76.45935674649475
 30
0.0
 11
90.25000000000014
 21
78.4593567464948
 31
0.0
  0
LINE
  5
149
330
1F
100
AcDbEntity
  8
0
  6
Continuous
 62
     7
100
AcDbLine
 10
92.30000000000015
 20
78.45935674649475
 30
0.0
 11
92.30000000000015
 21
76.45935674649469
 31
0.0
  0
LINE
  5
14A
330
1F
100
AcDbEntity
  8
0
  6
Continuous
 62
     7
100
AcDbLine
 10
81.35000000000005
 20
88.10935674649461
 30
0.0
 11
81.85000000000016
 21
87.60935674649464
 31
0.0
  0
LINE
  5
14B
330
1F
100
AcDbEntity
  8
0
  6
Continuous
 62
     7
100
AcDbLine
 10
63.31692500357653
 20
102.7374644103838
 30
0.0
 11
63.90000000000012
 21
103.0093567464948
 31
0.0
  0
LINE
  5
14C
330
1F
100
AcDbEntity
  8
0
  6
Continuous
 62
     7
100
AcDbLine
 10
63.90000000000012
 20
103.0093567464948
 30
0.0
 11
63.90000000000006
 21
99.90935674649484
 31
0.0
  0
LINE
  5
14D
330
1F
100
AcDbEntity
  8
0
  6
Continuous
 62
     7
100
AcDbLine
 10
62.90000000000012
 20
102.9330740092518
 30
0.0
 11
62.90000000000012
 21
103.0856394837379
 31
0.0
  0
LINE
  5
14E
330
1F
100
AcDbEntity
  8
0
  6
Continuous
 62
     7
100
AcDbLine
 10
62.90000000000012
 20
103.0856394837379
 30
0.0
 11
62.90000000000012
 21
103.4593567464948
 31
0.0
  0
LINE
  5
14F
330
1F
100
AcDbEntity
  8
0
  6
Continuous
 62
     7
100
AcDbLine
 10
63.06145598562981
 20
103.2853194873466
 30
0.0
 11
63.0371181354349
 21
103.267396383603
 31
0.0
  0
LINE
  5
150
330
1F
100
AcDbEntity
  8
0
  6
Continuous
 62
     7
100
AcDbLine
 10
64.95000000000007
 20
104.4593567464948
 30
0.0
 11
62.90000000000012
 21
104.4593567464948
 31
0.0
  0
LINE
  5
151
330
1F
100
AcDbEntity
  8
0
  6
Continuous
 62
     7
100
AcDbLine
 10
62.90000000000012
 20
103.4593567464948
 30
0.0
 11
62.9942363139717
 21
103.4593567464948
 31
0.0
  0
LINE
  5
152
330
1F
100
AcDbEntity
  8
0
  6
Continuous
 62
     7
100
AcDbLine
 10
62.90000000000012
 20
103.4593567464948
 30
0.0
 11
62.90000000000012
 21
104.4593567464948
 31
0.0
  0
LINE
  5
153
330
1F
100
AcDbEntity
  8
0
  6
Continuous
 62
     7
100
AcDbLine
 10
74.45000000000013
 20
98.55935674649463
 30
0.0
 11
80.75000000000014
 21
98.55935674649463
 31
0.0
  0
LINE
  5
154
330
1F
100
AcDbEntity
  8
0
  6
Continuous
 62
     7
100
AcDbLine
 10
80.75000000000014
 20
96.8093567464946
 30
0.0
 11
80.75000000000014
 21
97.3093567464946
 31
0.0
  0
LINE
  5
155
330
1F
100
AcDbEntity
  8
0
  6
Continuous
 62
     7
100
AcDbLine
 10
80.75000000000014
 20
97.3093567464946
 30
0.0
 11
80.75000000000014
 21
98.55935674649463
 31
0.0
  0
LINE
  5
156
330
1F
100
AcDbEntity
  8
0
  6
Continuous
 62
     7
100
AcDbLine
 10
80.75000000000014
 20
98.55935674649463
 30
0.0
 11
80.75000000000014
 21
102.4593567464949
 31
0.0
  0
LINE
  5
157
330
1F
100
AcDbEntity
  8
0
  6
Continuous
 62
     7
100
AcDbLine
 10
82.25000000000014
 20
102.4593567464949
 30
0.0
 11
82.25000000000014
 21
97.25935674649465
 31
0.0
  0
LINE
  5
158
330
1F
100
AcDbEntity
  8
0
  6
Continuous
 62
     7
100
AcDbLine
 10
82.75000000000014
 20
96.75935674649465
 30
0.0
 11
84.10000000000016
 21
96.75935674649465
 31
0.0
  0
LINE
  5
159
330
1F
100
AcDbEntity
  8
0
  6
Continuous
 62
     7
100
AcDbLine
 10
74.45000000000007
 20
96.8093567464946
 30
0.0
 11
80.75000000000014
 21
96.8093567464946
 31
0.0
  0
LINE
  5
15A
330
1F
100
AcDbEntity
  8
0
  6
Continuous
 62
     7
100
AcDbLine
 10
80.75000000000014
 20
97.3093567464946
 30
0.0
 11
74.45000000000013
 21
97.3093567464946
 31
0.0
  0
LINE
  5
15B
330
1F
100
AcDbEntity
  8
0
  6
Continuous
 62
     7
100
AcDbLine
 10
82.75000000000014
 20
102.9593567464949
 30
0.0
 11
80.25000000000014
 21
102.9593567464949
 31
0.0
  0
LINE
  5
15C
330
1F
100
AcDbEntity
  8
0
  6
Continuous
 62
     7
100
AcDbLine
 10
90.30000000000015
 20
102.9593567464948
 30
0.0
 11
82.75000000000014
 21
102.9593567464949
 31
0.0
  0
LINE
  5
15D
330
1F
100
AcDbEntity
  8
0
  6
Continuous
 62
     7
100
AcDbLine
 10
74.95000000000013
 20
102.9593567464949
 30
0.0
 11
72.45000000000013
 21
102.9593567464949
 31
0.0
  0
LINE
  5
15E
330
1F
100
AcDbEntity
  8
0
  6
Continuous
 62
     7
100
AcDbLine
 10
72.45000000000013
 20
102.9593567464949
 30
0.0
 11
65.90000000000018
 21
102.9593567464948
 31
0.0
  0
LINE
  5
15F
330
1F
100
AcDbEntity
  8
0
  6
Continuous
 62
     7
100
AcDbLine
 10
80.25000000000014
 20
102.9593567464949
 30
0.0
 11
74.95000000000013
 21
102.9593567464949
 31
0.0
  0
LINE
  5
160
330
1F
100
AcDbEntity
  8
0
  6
Continuous
 62
     7
100
AcDbLine
 10
72.95000000000013
 20
102.4593567464949
 30
0.0
 11
72.95000000000013
 21
97.25935674649465
 31
0.0
  0
LINE
  5
161
330
1F
100
AcDbEntity
  8
0
  6
Continuous
 62
     7
100
AcDbLine
 10
74.45000000000013
 20
97.3093567464946
 30
0.0
 11
74.45000000000013
 21
98.55935674649463
 31
0.0
  0
LINE
  5
162
330
1F
100
AcDbEntity
  8
0
  6
Continuous
 62
     7
100
AcDbLine
 10
63.90000000000006
 20
99.90935674649484
 30
0.0
 11
63.31692500357653
 21
100.1812490826058
 31
0.0
  0
LINE
  5
163
330
1F
100
AcDbEntity
  8
0
  6
Continuous
 62
     7
100
AcDbLine
 10
62.90000000000012
 20
99.83307400925179
 30
0.0
 11
62.90000000000012
 21
99.98563948373786
 31
0.0
  0
LINE
  5
164
330
1F
100
AcDbEntity
  8
0
  6
Continuous
 62
     7
100
AcDbLine
 10
62.90000000000012
 20
99.45935674649482
 30
0.0
 11
62.90000000000012
 21
99.83307400925179
 31
0.0
  0
LINE
  5
165
330
1F
100
AcDbEntity
  8
0
  6
Continuous
 62
     7
100
AcDbLine
 10
63.0371181354349
 20
99.65131710938664
 30
0.0
 11
63.06145598562981
 21
99.63339400564305
 31
0.0
  0
LINE
  5
166
330
1F
100
AcDbEntity
  8
0
  6
Continuous
 62
     7
100
AcDbLine
 10
62.9942363139717
 20
99.45935674649482
 30
0.0
 11
62.90000000000012
 21
99.45935674649482
 31
0.0
  0
LINE
  5
167
330
1F
100
AcDbEntity
  8
0
  6
Continuous
 62
     7
100
AcDbLine
 10
65.40000000000018
 20
102.4593567464948
 30
0.0
 11
65.40000000000012
 21
98.4593567464948
 31
0.0
  0
LINE
  5
168
330
1F
100
AcDbEntity
  8
0
  6
Continuous
 62
     7
100
AcDbLine
 10
62.90000000000012
 20
99.98563948373786
 30
0.0
 11
62.90000000000012
 21
102.9330740092518
 31
0.0
  0
LINE
  5
169
330
1F
100
AcDbEntity
  8
0
  6
Continuous
 62
     7
100
AcDbLine
 10
62.90000000000012
 20
99.45935674649482
 30
0.0
 11
62.90000000000012
 21
83.45935674649482
 31
0.0
  0
LINE
  5
16A
330
1F
100
AcDbEntity
  8
0
  6
Continuous
 62
     7
100
AcDbLine
 10
62.90000000000012
 20
76.45935674649476
 30
0.0
 11
64.95000000000007
 21
76.45935674649475
 31
0.0
  0
LINE
  5
16B
330
1F
100
AcDbEntity
  8
0
  6
Continuous
 62
     7
100
AcDbLine
 10
62.90000000000012
 20
79.83307400925176
 30
0.0
 11
62.90000000000012
 21
79.9856394837378
 31
0.0
  0
LINE
  5
16C
330
1F
100
AcDbEntity
  8
0
  6
Continuous
 62
     7
100
AcDbLine
 10
62.90000000000012
 20
78.45935674649482
 30
0.0
 11
62.90000000000012
 21
79.45935674649482
 31
0.0
  0
LINE
  5
16D
330
1F
100
AcDbEntity
  8
0
  6
Continuous
 62
     7
100
AcDbLine
 10
62.90000000000012
 20
79.45935674649482
 30
0.0
 11
62.90000000000012
 21
79.83307400925176
 31
0.0
  0
LINE
  5
16E
330
1F
100
AcDbEntity
  8
0
  6
Continuous
 62
     7
100
AcDbLine
 10
62.90000000000012
 20
82.93307400925184
 30
0.0
 11
62.90000000000012
 21
83.08563948373788
 31
0.0
  0
LINE
  5
16F
330
1F
100
AcDbEntity
  8
0
  6
Continuous
 62
     7
100
AcDbLine
 10
62.90000000000012
 20
83.08563948373788
 30
0.0
 11
62.90000000000012
 21
83.45935674649482
 31
0.0
  0
LINE
  5
170
330
1F
100
AcDbEntity
  8
0
  6
Continuous
 62
     7
100
AcDbLine
 10
62.90000000000012
 20
79.9856394837378
 30
0.0
 11
62.90000000000012
 21
82.93307400925184
 31
0.0
  0
LINE
  5
171
330
1F
100
AcDbEntity
  8
0
  6
Continuous
 62
     7
100
AcDbLine
 10
63.90000000000012
 20
79.90935674649481
 30
0.0
 11
63.31692500357653
 21
80.18124908260583
 31
0.0
  0
LINE
  5
172
330
1F
100
AcDbEntity
  8
0
  6
Continuous
 62
     7
100
AcDbLine
 10
63.90000000000012
 20
83.00935674649483
 30
0.0
 11
63.90000000000012
 21
79.90935674649481
 31
0.0
  0
LINE
  5
173
330
1F
100
AcDbEntity
  8
0
  6
Continuous
 62
     7
100
AcDbLine
 10
62.90000000000012
 20
76.45935674649476
 30
0.0
 11
62.90000000000012
 21
78.45935674649482
 31
0.0
  0
LINE
  5
174
330
1F
100
AcDbEntity
  8
0
  6
Continuous
 62
     7
100
AcDbLine
 10
64.95000000000007
 20
78.4593567464948
 30
0.0
 11
64.95000000000007
 21
76.45935674649475
 31
0.0
  0
LINE
  5
175
330
1F
100
AcDbEntity
  8
0
  6
Continuous
 62
     7
100
AcDbLine
 10
67.15000000000012
 20
76.45935674649482
 30
0.0
 11
64.95000000000007
 21
76.45935674649475
 31
0.0
  0
LINE
  5
176
330
1F
100
AcDbEntity
  8
0
  6
Continuous
 62
     7
100
AcDbLine
 10
63.06145598562981
 20
83.28531948734658
 30
0.0
 11
63.0371181354349
 21
83.267396383603
 31
0.0
  0
LINE
  5
177
330
1F
100
AcDbEntity
  8
0
  6
Continuous
 62
     7
100
AcDbLine
 10
62.90000000000012
 20
83.45935674649482
 30
0.0
 11
62.99423631397175
 21
83.45935674649482
 31
0.0
  0
LINE
  5
178
330
1F
100
AcDbEntity
  8
0
  6
Continuous
 62
     7
100
AcDbLine
 10
62.99423631397175
 20
79.45935674649482
 30
0.0
 11
62.90000000000012
 21
79.45935674649482
 31
0.0
  0
LINE
  5
179
330
1F
100
AcDbEntity
  8
0
  6
Continuous
 62
     7
100
AcDbLine
 10
63.0371181354349
 20
79.65131710938664
 30
0.0
 11
63.06145598562981
 21
79.63339400564305
 31
0.0
  0
LINE
  5
17A
330
1F
100
AcDbEntity
  8
0
  6
Continuous
 62
     7
100
AcDbLine
 10
62.90000000000012
 20
78.45935674649482
 30
0.0
 11
64.95000000000007
 21
78.4593567464948
 31
0.0
  0
LINE
  5
17B
330
1F
100
AcDbEntity
  8
0
  6
Continuous
 62
     7
100
AcDbLine
 10
63.31692500357659
 20
82.73746441038381
 30
0.0
 11
63.90000000000012
 21
83.00935674649483
 31
0.0
  0
LINE
  5
17C
330
1F
100
AcDbEntity
  8
0
  6
Continuous
 62
     7
100
AcDbLine
 10
67.15000000000012
 20
74.45935674649482
 30
0.0
 11
73.35000000000016
 21
74.45935674649482
 31
0.0
  0
LINE
  5
17D
330
1F
100
AcDbEntity
  8
0
  6
Continuous
 62
     7
100
AcDbLine
 10
75.5500000000001
 20
76.45935674649475
 30
0.0
 11
75.5500000000001
 21
78.4593567464948
 31
0.0
  0
LINE
  5
17E
330
1F
100
AcDbEntity
  8
0
  6
Continuous
 62
     7
100
AcDbLine
 10
75.5500000000001
 20
76.45935674649475
 30
0.0
 11
73.35000000000016
 21
76.4593567464947
 31
0.0
  0
LINE
  5
17F
330
1F
100
AcDbEntity
  8
0
  6
Continuous
 62
     7
100
AcDbLine
 10
73.35000000000016
 20
74.45935674649482
 30
0.0
 11
73.35000000000016
 21
76.4593567464947
 31
0.0
  0
LINE
  5
180
330
1F
100
AcDbEntity
  8
0
  6
Continuous
 62
     7
100
AcDbLine
 10
67.15000000000012
 20
76.45935674649482
 30
0.0
 11
67.15000000000012
 21
74.45935674649482
 31
0.0
  0
LINE
  5
181
330
1F
100
AcDbEntity
  8
0
  6
Continuous
 62
     7
100
AcDbLine
 10
64.90000000000018
 20
84.45935674649483
 30
0.0
 11
73.35000000000016
 21
84.45935674649486
 31
0.0
  0
LINE
  5
182
330
1F
100
AcDbEntity
  8
0
  6
Continuous
 62
     7
100
AcDbLine
 10
71.70000000000013
 20
93.20935674649463
 30
0.0
 11
71.70000000000013
 21
94.80935674649463
 31
0.0
  0
LINE
  5
183
330
1F
100
AcDbEntity
  8
0
  6
Continuous
 62
     7
100
AcDbLine
 10
71.20000000000013
 20
87.60935674649461
 30
0.0
 11
71.20000000000007
 21
95.30935674649466
 31
0.0
  0
LINE
  5
184
330
1F
100
AcDbEntity
  8
0
  6
Continuous
 62
     7
100
AcDbLine
 10
71.70000000000013
 20
94.80935674649463
 30
0.0
 11
71.20000000000007
 21
95.30935674649466
 31
0.0
  0
LINE
  5
185
330
1F
100
AcDbEntity
  8
0
  6
Continuous
 62
     7
100
AcDbLine
 10
71.70000000000013
 20
93.20935674649463
 30
0.0
 11
72.40000000000012
 21
93.2093567464946
 31
0.0
  0
LINE
  5
186
330
1F
100
AcDbEntity
  8
0
  6
Continuous
 62
     7
100
AcDbLine
 10
71.70000000000013
 20
94.80935674649463
 30
0.0
 11
73.35000000000011
 21
94.80935674649463
 31
0.0
  0
LINE
  5
187
330
1F
100
AcDbEntity
  8
0
  6
Continuous
 62
     7
100
AcDbLine
 10
71.70000000000013
 20
88.10935674649461
 30
0.0
 11
71.70000000000013
 21
89.70935674649463
 31
0.0
  0
LINE
  5
188
330
1F
100
AcDbEntity
  8
0
  6
Continuous
 62
     7
100
AcDbLine
 10
71.70000000000013
 20
89.70935674649463
 30
0.0
 11
72.40000000000012
 21
89.7093567464946
 31
0.0
  0
LINE
  5
189
330
1F
100
AcDbEntity
  8
0
  6
Continuous
 62
     7
100
AcDbLine
 10
73.35000000000011
 20
87.60935674649461
 30
0.0
 11
71.20000000000013
 21
87.60935674649461
 31
0.0
  0
LINE
  5
18A
330
1F
100
AcDbEntity
  8
0
  6
Continuous
 62
     7
100
AcDbLine
 10
71.70000000000013
 20
89.70935674649463
 30
0.0
 11
71.70000000000013
 21
93.20935674649463
 31
0.0
  0
LINE
  5
18B
330
1F
100
AcDbEntity
  8
0
  6
Continuous
 62
     7
100
AcDbLine
 10
73.35000000000016
 20
86.15935674649462
 30
0.0
 11
71.10000000000016
 21
86.15935674649462
 31
0.0
  0
LINE
  5
18C
330
1F
100
AcDbEntity
  8
0
  6
Continuous
 62
     7
100
AcDbLine
 10
73.85000000000011
 20
88.10935674649464
 30
0.0
 11
71.70000000000013
 21
88.10935674649461
 31
0.0
  0
LINE
  5
18D
330
1F
100
AcDbEntity
  8
0
  6
Continuous
 62
     7
100
AcDbLine
 10
70.60000000000016
 20
86.90935674649462
 30
0.0
 11
70.60000000000016
 21
86.65935674649462
 31
0.0
  0
LINE
  5
18E
330
1F
100
AcDbEntity
  8
0
  6
Continuous
 62
     7
100
AcDbLine
 10
71.20000000000013
 20
87.60935674649461
 30
0.0
 11
71.70000000000013
 21
88.10935674649461
 31
0.0
  0
LINE
  5
18F
330
1F
100
AcDbEntity
  8
0
  6
Continuous
 62
     7
100
AcDbLine
 10
70.60000000000016
 20
96.00935674649465
 30
0.0
 11
70.60000000000016
 21
96.25935674649465
 31
0.0
  0
LINE
  5
190
330
1F
100
AcDbEntity
  8
0
  6
Continuous
 62
     7
100
AcDbLine
 10
71.20000000000007
 20
95.30935674649466
 30
0.0
 11
72.85000000000011
 21
95.30935674649466
 31
0.0
  0
LINE
  5
191
330
1F
100
AcDbEntity
  8
0
  6
Continuous
 62
     7
100
AcDbLine
 10
71.10000000000016
 20
96.75935674649465
 30
0.0
 11
72.45000000000013
 21
96.75935674649465
 31
0.0
  0
LINE
  5
192
330
1F
100
AcDbEntity
  8
0
  6
Continuous
 62
     7
100
AcDbLine
 10
64.90000000000012
 20
95.50935674649465
 30
0.0
 11
70.10000000000016
 21
95.50935674649465
 31
0.0
  0
LINE
  5
193
330
1F
100
AcDbEntity
  8
0
  6
Continuous
 62
     7
100
AcDbLine
 10
74.45000000000007
 20
96.8093567464946
 30
0.0
 11
74.45000000000013
 21
97.3093567464946
 31
0.0
  0
LINE
  5
194
330
1F
100
AcDbEntity
  8
0
  6
Continuous
 62
     7
100
AcDbLine
 10
64.40000000000012
 20
97.4593567464948
 30
0.0
 11
64.40000000000012
 21
96.00935674649466
 31
0.0
  0
LINE
  5
195
330
1F
100
AcDbEntity
  8
0
  6
Continuous
 62
     7
100
AcDbLine
 10
64.40000000000012
 20
86.90935674649462
 30
0.0
 11
64.40000000000018
 21
84.95935674649483
 31
0.0
  0
LINE
  5
196
330
1F
100
AcDbEntity
  8
0
  6
Continuous
 62
     7
100
AcDbLine
 10
64.40000000000012
 20
96.00935674649466
 30
0.0
 11
64.40000000000012
 21
86.90935674649462
 31
0.0
  0
LINE
  5
197
330
1F
100
AcDbEntity
  8
0
  6
Continuous
 62
     7
100
AcDbLine
 10
70.10000000000016
 20
87.40935674649462
 30
0.0
 11
64.90000000000012
 21
87.40935674649462
 31
0.0
  0
LINE
  5
198
330
1F
100
AcDbEntity
  8
0
  6
Continuous
 62
     7
100
AcDbLine
 10
73.35000000000016
 20
84.45935674649486
 30
0.0
 11
75.85000000000011
 21
84.45935674649486
 31
0.0
  0
LINE
  5
199
330
1F
100
AcDbEntity
  8
0
  6
Continuous
 62
     7
100
AcDbLine
 10
73.85000000000016
 20
84.95935674649486
 30
0.0
 11
73.85000000000016
 21
85.65935674649462
 31
0.0
  0
LINE
  5
19A
330
1F
100
AcDbEntity
  8
0
  6
Continuous
 62
     7
100
AcDbLine
 10
73.85000000000011
 20
87.40935674649462
 30
0.0
 11
73.85000000000011
 21
88.10935674649464
 31
0.0
  0
LINE
  5
19B
330
1F
100
AcDbEntity
  8
0
  6
Continuous
 62
     7
100
AcDbLine
 10
73.85000000000011
 20
88.10935674649464
 30
0.0
 11
74.10000000000005
 21
88.10935674649461
 31
0.0
  0
LINE
  5
19C
330
1F
100
AcDbEntity
  8
0
  6
Continuous
 62
     7
100
AcDbLine
 10
75.35000000000016
 20
86.90935674649465
 30
0.0
 11
75.35000000000016
 21
87.40935674649462
 31
0.0
  0
LINE
  5
19D
330
1F
100
AcDbEntity
  8
0
  6
Continuous
 62
     7
100
AcDbLine
 10
75.35000000000011
 20
85.85935674649461
 30
0.0
 11
75.35000000000011
 21
84.95935674649486
 31
0.0
  0
LINE
  5
19E
330
1F
100
AcDbEntity
  8
0
  6
Continuous
 62
     7
100
AcDbLine
 10
75.35000000000016
 20
86.90935674649465
 30
0.0
 11
75.35000000000011
 21
85.85935674649461
 31
0.0
  0
LINE
  5
19F
330
1F
100
AcDbEntity
  8
0
  6
Continuous
 62
     7
100
AcDbLine
 10
73.85000000000011
 20
87.40935674649462
 30
0.0
 11
73.35000000000011
 21
86.90935674649462
 31
0.0
  0
LINE
  5
1A0
330
1F
100
AcDbEntity
  8
0
  6
Continuous
 62
     7
100
AcDbLine
 10
73.85000000000011
 20
88.10935674649464
 30
0.0
 11
73.35000000000011
 21
87.60935674649461
 31
0.0
  0
LINE
  5
1A1
330
1F
100
AcDbEntity
  8
0
  6
Continuous
 62
     7
100
AcDbLine
 10
73.35000000000011
 20
87.60935674649461
 30
0.0
 11
73.35000000000011
 21
86.90935674649462
 31
0.0
  0
LINE
  5
1A2
330
1F
100
AcDbEntity
  8
0
  6
Continuous
 62
     7
100
AcDbLine
 10
73.35000000000011
 20
94.80935674649463
 30
0.0
 11
73.35000000000011
 21
95.50935674649465
 31
0.0
  0
LINE
  5
1A3
330
1F
100
AcDbEntity
  8
0
  6
Continuous
 62
     7
100
AcDbLine
 10
72.40000000000012
 20
89.7093567464946
 30
0.0
 11
72.40000000000012
 21
93.2093567464946
 31
0.0
  0
LINE
  5
1A4
330
1F
100
AcDbEntity
  8
0
  6
Continuous
 62
     7
100
AcDbLine
 10
73.35000000000011
 20
86.90935674649462
 30
0.0
 11
75.35000000000016
 21
86.90935674649465
 31
0.0
  0
LINE
  5
1A5
330
1F
100
AcDbEntity
  8
0
  6
Continuous
 62
     7
100
AcDbLine
 10
75.35000000000016
 20
87.40935674649462
 30
0.0
 11
73.85000000000011
 21
87.40935674649462
 31
0.0
  0
LINE
  5
1A6
330
1F
100
AcDbEntity
  8
0
  6
Continuous
 62
     7
100
AcDbLine
 10
73.35000000000011
 20
94.80935674649463
 30
0.0
 11
72.85000000000011
 21
95.30935674649466
 31
0.0
  0
LINE
  5
1A7
330
1F
100
AcDbEntity
  8
0
  6
Continuous
 62
     7
100
AcDbLine
 10
73.35000000000011
 20
94.80935674649463
 30
0.0
 11
73.60000000000005
 21
94.8093567464946
 31
0.0
  0
LINE
  5
1A8
330
1F
100
AcDbEntity
  8
0
  6
Continuous
 62
     7
100
AcDbLine
 10
74.45000000000013
 20
95.50935674649465
 30
0.0
 11
73.35000000000011
 21
95.50935674649465
 31
0.0
  0
LINE
  5
1A9
330
1F
100
AcDbEntity
  8
0
  6
Continuous
 62
     7
100
AcDbLine
 10
72.85000000000011
 20
96.00935674649465
 30
0.0
 11
72.85000000000011
 21
95.30935674649466
 31
0.0
  0
LINE
  5
1AA
330
1F
100
AcDbEntity
  8
0
  6
Continuous
 62
     7
100
AcDbLine
 10
74.45000000000013
 20
96.00935674649465
 30
0.0
 11
72.85000000000011
 21
96.00935674649465
 31
0.0
  0
LINE
  5
1AB
330
1F
100
AcDbEntity
  8
0
  6
Continuous
 62
     7
100
AcDbLine
 10
72.85000000000011
 20
96.00935674649465
 30
0.0
 11
73.35000000000011
 21
95.50935674649465
 31
0.0
  0
LINE
  5
1AC
330
1F
100
AcDbEntity
  8
0
  6
Continuous
 62
     7
100
AcDbLine
 10
74.45000000000013
 20
95.50935674649465
 30
0.0
 11
74.45000000000007
 21
95.35935674649467
 31
0.0
  0
LINE
  5
1AD
330
1F
100
AcDbEntity
  8
0
  6
Continuous
 62
     7
100
AcDbLine
 10
74.45000000000013
 20
96.00935674649465
 30
0.0
 11
74.45000000000013
 21
95.50935674649465
 31
0.0
  0
LINE
  5
1AE
330
1F
100
AcDbEntity
  8
0
  6
Continuous
 62
     7
100
AcDbLine
 10
74.45000000000013
 20
96.00935674649465
 30
0.0
 11
74.45000000000007
 21
96.8093567464946
 31
0.0
  0
LINE
  5
1AF
330
1F
100
AcDbEntity
  8
0
  6
DASHED
 62
     7
100
AcDbLine
 10
79.20000000000007
 20
96.24393013460893
 30
0.0
 11
76.00000000000009
 21
96.24393013460893
 31
0.0
  0
LINE
  5
1B0
330
1F
100
AcDbEntity
  8
0
  6
DASHED
 62
     7
100
AcDbLine
 10
79.70000000000007
 20
87.55935674649466
 30
0.0
 11
79.70000000000007
 21
88.15935674649468
 31
0.0
  0
LINE
  5
1B1
330
1F
100
AcDbEntity
  8
0
  6
DASHED
 62
     7
100
AcDbLine
 10
80.60000000000005
 20
95.35935674649467
 30
0.0
 11
80.60000000000005
 21
96.65935674649468
 31
0.0
  0
LINE
  5
1B2
330
1F
100
AcDbEntity
  8
0
  6
DASHED
 62
     7
100
AcDbLine
 10
79.20000000000007
 20
96.24393013460893
 30
0.0
 11
79.20000000000007
 21
95.05935674649469
 31
0.0
  0
LINE
  5
1B3
330
1F
100
AcDbEntity
  8
0
  6
DASHED
 62
     7
100
AcDbLine
 10
80.20000000000007
 20
95.35935674649467
 30
0.0
 11
80.20000000000007
 21
94.75935674649467
 31
0.0
  0
LINE
  5
1B4
330
1F
100
AcDbEntity
  8
0
  6
DASHED
 62
     7
100
AcDbLine
 10
81.10000000000005
 20
87.55935674649466
 30
0.0
 11
79.70000000000007
 21
87.55935674649466
 31
0.0
  0
LINE
  5
1B5
330
1F
100
AcDbEntity
  8
0
  6
DASHED
 62
     7
100
AcDbLine
 10
83.45000000000007
 20
94.75935674649467
 30
0.0
 11
83.45000000000007
 21
93.20935674649463
 31
0.0
  0
LINE
  5
1B6
330
1F
100
AcDbEntity
  8
0
  6
DASHED
 62
     7
100
AcDbLine
 10
83.45000000000007
 20
89.70935674649463
 30
0.0
 11
83.45000000000007
 21
88.15935674649468
 31
0.0
  0
LINE
  5
1B7
330
1F
100
AcDbEntity
  8
0
  6
DASHED
 62
     7
100
AcDbLine
 10
71.75000000000009
 20
88.15935674649468
 30
0.0
 11
71.75000000000009
 21
89.70935674649463
 31
0.0
  0
LINE
  5
1B8
330
1F
100
AcDbEntity
  8
0
  6
DASHED
 62
     7
100
AcDbLine
 10
71.75000000000009
 20
93.20935674649463
 30
0.0
 11
71.75000000000009
 21
94.75935674649467
 31
0.0
  0
LINE
  5
1B9
330
1F
100
AcDbEntity
  8
0
  6
DASHED
 62
     7
100
AcDbLine
 10
75.50000000000009
 20
88.15935674649468
 30
0.0
 11
74.10000000000005
 21
88.15935674649468
 31
0.0
  0
LINE
  5
1BA
330
1F
100
AcDbEntity
  8
0
  6
DASHED
 62
     7
100
AcDbLine
 10
74.10000000000005
 20
88.15935674649468
 30
0.0
 11
71.75000000000009
 21
88.15935674649468
 31
0.0
  0
LINE
  5
1BB
330
1F
100
AcDbEntity
  8
0
  6
DASHED
 62
     7
100
AcDbLine
 10
81.10000000000005
 20
88.15935674649468
 30
0.0
 11
79.70000000000007
 21
88.15935674649468
 31
0.0
  0
LINE
  5
1BC
330
1F
100
AcDbEntity
  8
0
  6
DASHED
 62
     7
100
AcDbLine
 10
83.45000000000007
 20
88.15935674649468
 30
0.0
 11
81.10000000000005
 21
88.15935674649468
 31
0.0
  0
LINE
  5
1BD
330
1F
100
AcDbEntity
  8
0
  6
DASHED
 62
     7
100
AcDbLine
 10
79.70000000000007
 20
88.15935674649468
 30
0.0
 11
75.50000000000009
 21
88.15935674649468
 31
0.0
  0
LINE
  5
1BE
330
1F
100
AcDbEntity
  8
0
  6
DASHED
 62
     7
100
AcDbLine
 10
82.95000000000007
 20
94.25935674649467
 30
0.0
 11
82.95000000000007
 21
93.20935674649463
 31
0.0
  0
LINE
  5
1BF
330
1F
100
AcDbEntity
  8
0
  6
DASHED
 62
     7
100
AcDbLine
 10
82.95000000000007
 20
89.70935674649463
 30
0.0
 11
82.95000000000007
 21
88.65935674649468
 31
0.0
  0
LINE
  5
1C0
330
1F
100
AcDbEntity
  8
0
  6
DASHED
 62
     7
100
AcDbLine
 10
82.95000000000007
 20
88.65935674649468
 30
0.0
 11
72.25000000000009
 21
88.65935674649468
 31
0.0
  0
LINE
  5
1C1
330
1F
100
AcDbEntity
  8
0
  6
DASHED
 62
     7
100
AcDbLine
 10
74.85000000000005
 20
90.95935674649469
 30
0.0
 11
74.85000000000005
 21
90.75935674649467
 31
0.0
  0
LINE
  5
1C2
330
1F
100
AcDbEntity
  8
0
  6
DASHED
 62
     7
100
AcDbLine
 10
74.85000000000005
 20
90.75935674649467
 30
0.0
 11
74.85000000000005
 21
90.45935674649469
 31
0.0
  0
LINE
  5
1C3
330
1F
100
AcDbEntity
  8
0
  6
DASHED
 62
     7
100
AcDbLine
 10
74.85000000000005
 20
90.75935674649467
 30
0.0
 11
75.35000000000005
 21
90.75935674649467
 31
0.0
  0
LINE
  5
1C4
330
1F
100
AcDbEntity
  8
0
  6
DASHED
 62
     7
100
AcDbLine
 10
75.35000000000005
 20
90.95935674649469
 30
0.0
 11
74.85000000000005
 21
90.95935674649469
 31
0.0
  0
LINE
  5
1C5
330
1F
100
AcDbEntity
  8
0
  6
DASHED
 62
     7
100
AcDbLine
 10
79.35000000000005
 20
89.95935674649469
 30
0.0
 11
75.85000000000005
 21
89.95935674649469
 31
0.0
  0
LINE
  5
1C6
330
1F
100
AcDbEntity
  8
0
  6
DASHED
 62
     7
100
AcDbLine
 10
75.85000000000005
 20
89.45935674649469
 30
0.0
 11
79.35000000000005
 21
89.45935674649469
 31
0.0
  0
LINE
  5
1C7
330
1F
100
AcDbEntity
  8
0
  6
DASHED
 62
     7
100
AcDbLine
 10
75.85000000000005
 20
93.95935674649469
 30
0.0
 11
79.35000000000005
 21
93.95935674649469
 31
0.0
  0
LINE
  5
1C8
330
1F
100
AcDbEntity
  8
0
  6
DASHED
 62
     7
100
AcDbLine
 10
75.35000000000005
 20
90.45935674649469
 30
0.0
 11
75.35000000000005
 21
90.75935674649467
 31
0.0
  0
LINE
  5
1C9
330
1F
100
AcDbEntity
  8
0
  6
DASHED
 62
     7
100
AcDbLine
 10
75.35000000000005
 20
90.75935674649467
 30
0.0
 11
75.35000000000005
 21
90.95935674649469
 31
0.0
  0
LINE
  5
1CA
330
1F
100
AcDbEntity
  8
0
  6
DASHED
 62
     7
100
AcDbLine
 10
75.35000000000005
 20
90.95935674649469
 30
0.0
 11
75.35000000000005
 21
93.45935674649469
 31
0.0
  0
LINE
  5
1CB
330
1F
100
AcDbEntity
  8
0
  6
DASHED
 62
     7
100
AcDbLine
 10
74.85000000000005
 20
93.45935674649469
 30
0.0
 11
74.85000000000005
 21
90.95935674649469
 31
0.0
  0
LINE
  5
1CC
330
1F
100
AcDbEntity
  8
0
  6
DASHED
 62
     7
100
AcDbLine
 10
75.25000000000009
 20
94.25935674649467
 30
0.0
 11
72.25000000000009
 21
94.25935674649467
 31
0.0
  0
LINE
  5
1CD
330
1F
100
AcDbEntity
  8
0
  6
DASHED
 62
     7
100
AcDbLine
 10
72.25000000000009
 20
93.20935674649463
 30
0.0
 11
72.25000000000009
 21
94.25935674649467
 31
0.0
  0
LINE
  5
1CE
330
1F
100
AcDbEntity
  8
0
  6
DASHED
 62
     7
100
AcDbLine
 10
80.35000000000005
 20
90.45935674649469
 30
0.0
 11
80.35000000000005
 21
93.45935674649469
 31
0.0
  0
LINE
  5
1CF
330
1F
100
AcDbEntity
  8
0
  6
DASHED
 62
     7
100
AcDbLine
 10
79.85000000000005
 20
93.45935674649469
 30
0.0
 11
79.85000000000005
 21
90.45935674649469
 31
0.0
  0
LINE
  5
1D0
330
1F
100
AcDbEntity
  8
0
  6
DASHED
 62
     7
100
AcDbLine
 10
82.95000000000007
 20
94.25935674649467
 30
0.0
 11
79.95000000000007
 21
94.25935674649467
 31
0.0
  0
LINE
  5
1D1
330
1F
100
AcDbEntity
  8
0
  6
DASHED
 62
     7
100
AcDbLine
 10
81.60000000000005
 20
95.35935674649467
 30
0.0
 11
81.60000000000005
 21
94.75935674649467
 31
0.0
  0
LINE
  5
1D2
330
1F
100
AcDbEntity
  8
0
  6
DASHED
 62
     7
100
AcDbLine
 10
73.60000000000005
 20
95.35935674649467
 30
0.0
 11
75.00000000000009
 21
95.35935674649467
 31
0.0
  0
LINE
  5
1D3
330
1F
100
AcDbEntity
  8
0
  6
DASHED
 62
     7
100
AcDbLine
 10
73.60000000000005
 20
95.35935674649467
 30
0.0
 11
73.60000000000005
 21
94.75935674649467
 31
0.0
  0
LINE
  5
1D4
330
1F
100
AcDbEntity
  8
0
  6
DASHED
 62
     7
100
AcDbLine
 10
76.10000000000005
 20
94.75935674649467
 30
0.0
 11
79.10000000000005
 21
94.75935674649467
 31
0.0
  0
LINE
  5
1D5
330
1F
100
AcDbEntity
  8
0
  6
DASHED
 62
     7
100
AcDbLine
 10
75.00000000000009
 20
95.05935674649469
 30
0.0
 11
76.00000000000009
 21
95.05935674649469
 31
0.0
  0
LINE
  5
1D6
330
1F
100
AcDbEntity
  8
0
  6
DASHED
 62
     7
100
AcDbLine
 10
73.60000000000005
 20
94.75935674649467
 30
0.0
 11
75.00000000000009
 21
94.75935674649467
 31
0.0
  0
LINE
  5
1D7
330
1F
100
AcDbEntity
  8
0
  6
DASHED
 62
     7
100
AcDbLine
 10
76.00000000000009
 20
95.05935674649469
 30
0.0
 11
79.20000000000007
 21
95.05935674649469
 31
0.0
  0
LINE
  5
1D8
330
1F
100
AcDbEntity
  8
0
  6
DASHED
 62
     7
100
AcDbLine
 10
71.75000000000009
 20
94.75935674649467
 30
0.0
 11
73.60000000000005
 21
94.75935674649467
 31
0.0
  0
LINE
  5
1D9
330
1F
100
AcDbEntity
  8
0
  6
DASHED
 62
     7
100
AcDbLine
 10
81.60000000000005
 20
95.35935674649467
 30
0.0
 11
80.20000000000007
 21
95.35935674649467
 31
0.0
  0
LINE
  5
1DA
330
1F
100
AcDbEntity
  8
0
  6
DASHED
 62
     7
100
AcDbLine
 10
79.35000000000005
 20
94.45935674649469
 30
0.0
 11
79.10000000000005
 21
94.45935674649469
 31
0.0
  0
LINE
  5
1DB
330
1F
100
AcDbEntity
  8
0
  6
DASHED
 62
     7
100
AcDbLine
 10
79.10000000000005
 20
94.75935674649467
 30
0.0
 11
79.10000000000005
 21
94.45935674649469
 31
0.0
  0
LINE
  5
1DC
330
1F
100
AcDbEntity
  8
0
  6
DASHED
 62
     7
100
AcDbLine
 10
79.20000000000007
 20
95.05935674649469
 30
0.0
 11
80.20000000000007
 21
95.05935674649469
 31
0.0
  0
LINE
  5
1DD
330
1F
100
AcDbEntity
  8
0
  6
DASHED
 62
     7
100
AcDbLine
 10
80.20000000000007
 20
94.75935674649467
 30
0.0
 11
81.60000000000005
 21
94.75935674649467
 31
0.0
  0
LINE
  5
1DE
330
1F
100
AcDbEntity
  8
0
  6
DASHED
 62
     7
100
AcDbLine
 10
79.10000000000005
 20
94.75935674649467
 30
0.0
 11
80.20000000000007
 21
94.75935674649467
 31
0.0
  0
LINE
  5
1DF
330
1F
100
AcDbEntity
  8
0
  6
DASHED
 62
     7
100
AcDbLine
 10
81.60000000000005
 20
94.75935674649467
 30
0.0
 11
83.45000000000007
 21
94.75935674649467
 31
0.0
  0
LINE
  5
1E0
330
1F
100
AcDbEntity
  8
0
  6
DASHED
 62
     7
100
AcDbLine
 10
79.10000000000005
 20
94.45935674649469
 30
0.0
 11
76.10000000000005
 21
94.45935674649469
 31
0.0
  0
LINE
  5
1E1
330
1F
100
AcDbEntity
  8
0
  6
DASHED
 62
     7
100
AcDbLine
 10
81.10000000000005
 20
87.55935674649466
 30
0.0
 11
81.10000000000005
 21
88.15935674649468
 31
0.0
  0
LINE
  5
1E2
330
1F
100
AcDbEntity
  8
0
  6
DASHED
 62
     7
100
AcDbLine
 10
79.20000000000007
 20
96.8093567464946
 30
0.0
 11
79.20000000000007
 21
96.65935674649468
 31
0.0
  0
LINE
  5
1E3
330
1F
100
AcDbEntity
  8
0
  6
DASHED
 62
     7
100
AcDbLine
 10
79.20000000000007
 20
96.65935674649468
 30
0.0
 11
79.20000000000007
 21
96.24393013460893
 31
0.0
  0
LINE
  5
1E4
330
1F
100
AcDbEntity
  8
0
  6
DASHED
 62
     7
100
AcDbLine
 10
79.20000000000007
 20
96.65935674649468
 30
0.0
 11
80.60000000000005
 21
96.65935674649468
 31
0.0
  0
LINE
  5
1E5
330
1F
100
AcDbEntity
  8
0
  6
DASHED
 62
     7
100
AcDbLine
 10
74.10000000000005
 20
87.55935674649466
 30
0.0
 11
74.10000000000005
 21
88.15935674649468
 31
0.0
  0
LINE
  5
1E6
330
1F
100
AcDbEntity
  8
0
  6
DASHED
 62
     7
100
AcDbLine
 10
72.25000000000009
 20
88.65935674649468
 30
0.0
 11
72.25000000000009
 21
89.70935674649463
 31
0.0
  0
LINE
  5
1E7
330
1F
100
AcDbEntity
  8
0
  6
DASHED
 62
     7
100
AcDbLine
 10
74.10000000000005
 20
87.55935674649466
 30
0.0
 11
75.50000000000009
 21
87.55935674649466
 31
0.0
  0
LINE
  5
1E8
330
1F
100
AcDbEntity
  8
0
  6
DASHED
 62
     7
100
AcDbLine
 10
75.50000000000009
 20
87.55935674649466
 30
0.0
 11
75.50000000000009
 21
88.15935674649468
 31
0.0
  0
LINE
  5
1E9
330
1F
100
AcDbEntity
  8
0
  6
DASHED
 62
     7
100
AcDbLine
 10
76.10000000000005
 20
94.45935674649469
 30
0.0
 11
75.85000000000005
 21
94.45935674649469
 31
0.0
  0
LINE
  5
1EA
330
1F
100
AcDbEntity
  8
0
  6
DASHED
 62
     7
100
AcDbLine
 10
76.10000000000005
 20
94.45935674649469
 30
0.0
 11
76.10000000000005
 21
94.75935674649467
 31
0.0
  0
LINE
  5
1EB
330
1F
100
AcDbEntity
  8
0
  6
DASHED
 62
     7
100
AcDbLine
 10
76.00000000000009
 20
96.24393013460893
 30
0.0
 11
76.00000000000009
 21
95.05935674649469
 31
0.0
  0
LINE
  5
1EC
330
1F
100
AcDbEntity
  8
0
  6
DASHED
 62
     7
100
AcDbLine
 10
76.00000000000009
 20
96.65935674649468
 30
0.0
 11
76.00000000000009
 21
96.8093567464946
 31
0.0
  0
LINE
  5
1ED
330
1F
100
AcDbEntity
  8
0
  6
DASHED
 62
     7
100
AcDbLine
 10
76.00000000000009
 20
96.24393013460893
 30
0.0
 11
76.00000000000009
 21
96.65935674649468
 31
0.0
  0
LINE
  5
1EE
330
1F
100
AcDbEntity
  8
0
  6
DASHED
 62
     7
100
AcDbLine
 10
76.00000000000009
 20
96.65935674649468
 30
0.0
 11
74.60000000000005
 21
96.65935674649468
 31
0.0
  0
LINE
  5
1EF
330
1F
100
AcDbEntity
  8
0
  6
DASHED
 62
     7
100
AcDbLine
 10
74.60000000000005
 20
95.35935674649467
 30
0.0
 11
74.60000000000005
 21
96.65935674649468
 31
0.0
  0
LINE
  5
1F0
330
1F
100
AcDbEntity
  8
0
  6
DASHED
 62
     7
100
AcDbLine
 10
75.00000000000009
 20
95.35935674649467
 30
0.0
 11
75.00000000000009
 21
94.75935674649467
 31
0.0
  0
LINE
  5
1F1
330
1F
100
AcDbEntity
  8
0
  6
DASHED
 62
     7
100
AcDbLine
 10
75.00000000000009
 20
94.75935674649467
 30
0.0
 11
76.10000000000005
 21
94.75935674649467
 31
0.0
  0
LINE
  5
1F2
330
1F
100
AcDbEntity
  8
0
  6
Continuous
 62
     7
100
AcDbLine
 10
92.3000000000001
 20
217.0105516132647
 30
0.0
 11
92.3000000000001
 21
216.6662913901806
 31
0.0
  0
LINE
  5
1F3
330
1F
100
AcDbEntity
  8
0
  6
Continuous
 62
     7
100
AcDbLine
 10
92.3000000000001
 20
216.6662913901806
 30
0.0
 11
92.3000000000001
 21
213.0105516132647
 31
0.0
  0
LINE
  5
1F4
330
1F
100
AcDbEntity
  8
0
  6
Continuous
 62
     7
100
AcDbLine
 10
89.3000000000001
 20
215.5105516132647
 30
0.0
 11
89.30000000000004
 21
214.0105516132647
 31
0.0
  0
LINE
  5
1F5
330
1F
100
AcDbEntity
  8
0
  6
Continuous
 62
     7
100
AcDbLine
 10
91.3000000000001
 20
216.0105516132647
 30
0.0
 11
89.8000000000001
 21
216.0105516132647
 31
0.0
  0
LINE
  5
1F6
330
1F
100
AcDbEntity
  8
0
  6
Continuous
 62
     7
100
AcDbLine
 10
89.05000000000021
 20
213.0105516132645
 30
0.0
 11
89.05000000000021
 21
211.0105516132645
 31
0.0
  0
LINE
  5
1F7
330
1F
100
AcDbEntity
  8
0
  6
Continuous
 62
     7
100
AcDbLine
 10
89.05000000000021
 20
211.0105516132645
 30
0.0
 11
88.55000000000021
 21
211.0105516132645
 31
0.0
  0
LINE
  5
1F8
330
1F
100
AcDbEntity
  8
0
  6
Continuous
 62
     7
100
AcDbLine
 10
80.85000000000016
 20
213.0105516132645
 30
0.0
 11
80.85000000000016
 21
211.0105516132646
 31
0.0
  0
LINE
  5
1F9
330
1F
100
AcDbEntity
  8
0
  6
Continuous
 62
     7
100
AcDbLine
 10
89.05000000000021
 20
213.0105516132645
 30
0.0
 11
88.30000000000004
 21
213.0105516132647
 31
0.0
  0
LINE
  5
1FA
330
1F
100
AcDbEntity
  8
0
  6
Continuous
 62
     7
100
AcDbLine
 10
81.35000000000016
 20
211.0105516132646
 30
0.0
 11
88.55000000000021
 21
211.0105516132645
 31
0.0
  0
LINE
  5
1FB
330
1F
100
AcDbEntity
  8
0
  6
Continuous
 62
     7
100
AcDbLine
 10
87.65000000000012
 20
216.5105516132647
 30
0.0
 11
87.65000000000012
 21
215.5105516132647
 31
0.0
  0
LINE
  5
1FC
330
1F
100
AcDbEntity
  8
0
  6
Continuous
 62
     7
100
AcDbLine
 10
92.3000000000001
 20
213.0105516132647
 30
0.0
 11
89.05000000000021
 21
213.0105516132645
 31
0.0
  0
LINE
  5
1FD
330
1F
100
AcDbEntity
  8
0
  6
Continuous
 62
     7
100
AcDbLine
 10
93.20000000000007
 20
216.8744887286881
 30
0.0
 11
93.20000000000007
 21
217.4899924762173
 31
0.0
  0
LINE
  5
1FE
330
1F
100
AcDbEntity
  8
0
  6
Continuous
 62
     7
100
AcDbLine
 10
89.80000000000021
 20
217.5105516132647
 30
0.0
 11
88.65000000000012
 21
217.5105516132647
 31
0.0
  0
LINE
  5
1FF
330
1F
100
AcDbEntity
  8
0
  6
Continuous
 62
     7
100
AcDbLine
 10
66.55000000000015
 20
217.5105516132647
 30
0.0
 11
65.40000000000012
 21
217.5105516132647
 31
0.0
  0
LINE
  5
200
330
1F
100
AcDbEntity
  8
0
  6
Continuous
 62
     7
100
AcDbLine
 10
92.58452365234822
 20
216.847552947588
 30
0.0
 11
92.91547634765195
 21
216.6932271712808
 31
0.0
  0
LINE
  5
201
330
1F
100
AcDbEntity
  8
0
  6
Continuous
 62
     7
100
AcDbLine
 10
66.15000000000012
 20
213.0105516132645
 30
0.0
 11
62.90000000000012
 21
213.0105516132645
 31
0.0
  0
LINE
  5
202
330
1F
100
AcDbEntity
  8
0
  6
Continuous
 62
     7
100
AcDbLine
 10
62.90000000000012
 20
213.0105516132645
 30
0.0
 11
62.90000000000012
 21
217.0105516132647
 31
0.0
  0
LINE
  5
203
330
1F
100
AcDbEntity
  8
0
  6
Continuous
 62
     7
100
AcDbLine
 10
65.90000000000006
 20
214.0105516132647
 30
0.0
 11
65.90000000000006
 21
215.5105516132647
 31
0.0
  0
LINE
  5
204
330
1F
100
AcDbEntity
  8
0
  6
Continuous
 62
     7
100
AcDbLine
 10
65.40000000000006
 20
216.0105516132647
 30
0.0
 11
63.90000000000012
 21
216.0105516132647
 31
0.0
  0
LINE
  5
205
330
1F
100
AcDbEntity
  8
0
  6
Continuous
 62
     7
100
AcDbLine
 10
62.90000000000012
 20
243.0105516132645
 30
0.0
 11
62.90000000000012
 21
217.0105516132647
 31
0.0
  0
LINE
  5
206
330
1F
100
AcDbEntity
  8
0
  6
Continuous
 62
     7
100
AcDbLine
 10
66.15000000000012
 20
213.0105516132645
 30
0.0
 11
66.15000000000012
 21
211.0105516132645
 31
0.0
  0
LINE
  5
207
330
1F
100
AcDbEntity
  8
0
  6
Continuous
 62
     7
100
AcDbLine
 10
66.65000000000012
 20
211.0105516132645
 30
0.0
 11
66.15000000000012
 21
211.0105516132645
 31
0.0
  0
LINE
  5
208
330
1F
100
AcDbEntity
  8
0
  6
Continuous
 62
     7
100
AcDbLine
 10
74.35000000000016
 20
213.0105516132645
 30
0.0
 11
74.35000000000016
 21
211.0105516132645
 31
0.0
  0
LINE
  5
209
330
1F
100
AcDbEntity
  8
0
  6
Continuous
 62
     7
100
AcDbLine
 10
66.90000000000006
 20
213.0105516132647
 30
0.0
 11
66.15000000000012
 21
213.0105516132645
 31
0.0
  0
LINE
  5
20A
330
1F
100
AcDbEntity
  8
0
  6
Continuous
 62
     7
100
AcDbLine
 10
67.55000000000015
 20
215.5105516132647
 30
0.0
 11
67.55000000000015
 21
216.5105516132647
 31
0.0
  0
LINE
  5
20B
330
1F
100
AcDbEntity
  8
0
  6
Continuous
 62
     7
100
AcDbLine
 10
66.65000000000012
 20
211.0105516132645
 30
0.0
 11
73.85000000000016
 21
211.0105516132645
 31
0.0
  0
LINE
  5
20C
330
1F
100
AcDbEntity
  8
0
  6
Continuous
 62
     7
100
AcDbLine
 10
83.50000000000014
 20
231.3605516132649
 30
0.0
 11
71.70000000000013
 21
231.3605516132649
 31
0.0
  0
LINE
  5
20D
330
1F
100
AcDbEntity
  8
0
  6
Continuous
 62
     7
100
AcDbLine
 10
87.80000000000015
 20
241.5105516132647
 30
0.0
 11
67.40000000000012
 21
241.5105516132642
 31
0.0
  0
LINE
  5
20E
330
1F
100
AcDbEntity
  8
0
  6
Continuous
 62
     7
100
AcDbLine
 10
68.55000000000015
 20
214.5105516132647
 30
0.0
 11
86.65000000000012
 21
214.5105516132647
 31
0.0
  0
LINE
  5
20F
330
1F
100
AcDbEntity
  8
0
  6
Continuous
 62
     7
100
AcDbLine
 10
74.45000000000007
 20
222.6605516132648
 30
0.0
 11
80.75000000000014
 21
222.6605516132648
 31
0.0
  0
LINE
  5
210
330
1F
100
AcDbEntity
  8
0
  6
Continuous
 62
     7
100
AcDbLine
 10
81.35000000000016
 20
211.0105516132646
 30
0.0
 11
80.85000000000016
 21
211.0105516132646
 31
0.0
  0
LINE
  5
211
330
1F
100
AcDbEntity
  8
0
  6
Continuous
 62
     7
100
AcDbLine
 10
80.85000000000016
 20
213.0105516132645
 30
0.0
 11
88.30000000000004
 21
213.0105516132647
 31
0.0
  0
LINE
  5
212
330
1F
100
AcDbEntity
  8
0
  6
Continuous
 62
     7
100
AcDbLine
 10
74.35000000000016
 20
213.0105516132645
 30
0.0
 11
80.85000000000016
 21
213.0105516132645
 31
0.0
  0
LINE
  5
213
330
1F
100
AcDbEntity
  8
0
  6
Continuous
 62
     7
100
AcDbLine
 10
66.90000000000006
 20
213.0105516132647
 30
0.0
 11
74.35000000000016
 21
213.0105516132645
 31
0.0
  0
LINE
  5
214
330
1F
100
AcDbEntity
  8
0
  6
Continuous
 62
     7
100
AcDbLine
 10
74.35000000000016
 20
211.0105516132645
 30
0.0
 11
73.85000000000016
 21
211.0105516132645
 31
0.0
  0
LINE
  5
215
330
1F
100
AcDbEntity
  8
0
  6
Continuous
 62
     7
100
AcDbLine
 10
73.35000000000016
 20
243.0105516132646
 30
0.0
 11
81.85000000000016
 21
243.0105516132647
 31
0.0
  0
LINE
  5
216
330
1F
100
AcDbEntity
  8
0
  6
Continuous
 62
     7
100
AcDbLine
 10
93.0432879227877
 20
218.3358515488879
 30
0.0
 11
92.93205080756897
 21
218.3111908741561
 31
0.0
  0
LINE
  5
217
330
1F
100
AcDbEntity
  8
0
  6
Continuous
 62
     7
100
AcDbLine
 10
92.45671207721247
 20
218.2058108146886
 30
0.0
 11
92.93205080756897
 21
218.3111908741561
 31
0.0
  0
LINE
  5
218
330
1F
100
AcDbEntity
  8
0
  6
Continuous
 62
     7
100
AcDbLine
 10
92.93205080756897
 20
217.7099123523731
 30
0.0
 11
92.45671207721247
 21
217.8152924118406
 31
0.0
  0
LINE
  5
219
330
1F
100
AcDbEntity
  8
0
  6
Continuous
 62
     7
100
AcDbLine
 10
92.93205080756897
 20
217.7099123523731
 30
0.0
 11
93.0432879227877
 21
217.6852516776413
 31
0.0
  0
LINE
  5
21A
330
1F
100
AcDbEntity
  8
0
  6
Continuous
 62
     7
100
AcDbLine
 10
92.3000000000001
 20
218.0105516132646
 30
0.0
 11
92.3000000000001
 21
217.0105516132647
 31
0.0
  0
LINE
  5
21B
330
1F
100
AcDbEntity
  8
0
  6
Continuous
 62
     7
100
AcDbLine
 10
93.20000000000007
 20
218.5311107503119
 30
0.0
 11
93.20000000000007
 21
219.1466144978411
 31
0.0
  0
LINE
  5
21C
330
1F
100
AcDbEntity
  8
0
  6
Continuous
 62
     7
100
AcDbLine
 10
92.3000000000001
 20
219.3548118363486
 30
0.0
 11
92.3000000000001
 21
218.0105516132646
 31
0.0
  0
LINE
  5
21D
330
1F
100
AcDbEntity
  8
0
  6
Continuous
 62
     7
100
AcDbLine
 10
92.3000000000001
 20
236.6662913901806
 30
0.0
 11
92.3000000000001
 21
219.3548118363486
 31
0.0
  0
LINE
  5
21E
330
1F
100
AcDbEntity
  8
0
  6
Continuous
 62
     7
100
AcDbLine
 10
90.80000000000021
 20
225.3605516132648
 30
0.0
 11
90.80000000000021
 21
218.5105516132647
 31
0.0
  0
LINE
  5
21F
330
1F
100
AcDbEntity
  8
0
  6
Continuous
 62
     7
100
AcDbLine
 10
80.75000000000014
 20
222.6605516132648
 30
0.0
 11
80.75000000000014
 21
224.6605516132648
 31
0.0
  0
LINE
  5
220
330
1F
100
AcDbEntity
  8
0
  6
Continuous
 62
     7
100
AcDbLine
 10
93.20000000000013
 20
238.5311107503119
 30
0.0
 11
93.20000000000013
 21
239.1466144978411
 31
0.0
  0
LINE
  5
221
330
1F
100
AcDbEntity
  8
0
  6
Continuous
 62
     7
100
AcDbLine
 10
93.20000000000007
 20
236.8744887286881
 30
0.0
 11
93.20000000000013
 21
237.4899924762173
 31
0.0
  0
LINE
  5
222
330
1F
100
AcDbEntity
  8
0
  6
Continuous
 62
     7
100
AcDbLine
 10
92.3000000000001
 20
238.0105516132646
 30
0.0
 11
92.3000000000001
 21
236.6662913901806
 31
0.0
  0
LINE
  5
223
330
1F
100
AcDbEntity
  8
0
  6
Continuous
 62
     7
100
AcDbLine
 10
90.80000000000015
 20
238.5105516132647
 30
0.0
 11
90.80000000000021
 21
230.6605516132648
 31
0.0
  0
LINE
  5
224
330
1F
100
AcDbEntity
  8
0
  6
Continuous
 62
     7
100
AcDbLine
 10
93.04328792278775
 20
238.3358515488879
 30
0.0
 11
92.93205080756897
 21
238.3111908741561
 31
0.0
  0
LINE
  5
225
330
1F
100
AcDbEntity
  8
0
  6
Continuous
 62
     7
100
AcDbLine
 10
92.45671207721247
 20
238.2058108146886
 30
0.0
 11
92.93205080756897
 21
238.3111908741561
 31
0.0
  0
LINE
  5
226
330
1F
100
AcDbEntity
  8
0
  6
Continuous
 62
     7
100
AcDbLine
 10
83.50000000000014
 20
230.6605516132648
 30
0.0
 11
90.80000000000021
 21
230.6605516132648
 31
0.0
  0
LINE
  5
227
330
1F
100
AcDbEntity
  8
0
  6
Continuous
 62
     7
100
AcDbLine
 10
92.93205080756897
 20
237.7099123523731
 30
0.0
 11
93.04328792278775
 21
237.6852516776413
 31
0.0
  0
LINE
  5
228
330
1F
100
AcDbEntity
  8
0
  6
Continuous
 62
     7
100
AcDbLine
 10
83.50000000000014
 20
230.6605516132648
 30
0.0
 11
83.50000000000014
 21
231.3605516132649
 31
0.0
  0
LINE
  5
229
330
1F
100
AcDbEntity
  8
0
  6
Continuous
 62
     7
100
AcDbLine
 10
92.3000000000001
 20
239.3548118363486
 30
0.0
 11
92.3000000000001
 21
238.0105516132646
 31
0.0
  0
LINE
  5
22A
330
1F
100
AcDbEntity
  8
0
  6
Continuous
 62
     7
100
AcDbLine
 10
92.93205080756897
 20
237.7099123523731
 30
0.0
 11
92.45671207721247
 21
237.8152924118406
 31
0.0
  0
LINE
  5
22B
330
1F
100
AcDbEntity
  8
0
  6
Continuous
 62
     7
100
AcDbLine
 10
92.58452365234822
 20
236.847552947588
 30
0.0
 11
92.91547634765195
 21
236.6932271712808
 31
0.0
  0
LINE
  5
22C
330
1F
100
AcDbEntity
  8
0
  6
Continuous
 62
     7
100
AcDbLine
 10
92.91547634765195
 20
239.3278760552485
 30
0.0
 11
92.58452365234822
 21
239.1735502789413
 31
0.0
  0
LINE
  5
22D
330
1F
100
AcDbEntity
  8
0
  6
Continuous
 62
     7
100
AcDbLine
 10
92.91547634765195
 20
219.3278760552485
 30
0.0
 11
92.58452365234822
 21
219.1735502789413
 31
0.0
  0
LINE
  5
22E
330
1F
100
AcDbEntity
  8
0
  6
Continuous
 62
     7
100
AcDbLine
 10
82.35000000000016
 20
245.0105516132646
 30
0.0
 11
81.85000000000016
 21
245.0105516132646
 31
0.0
  0
LINE
  5
22F
330
1F
100
AcDbEntity
  8
0
  6
Continuous
 62
     7
100
AcDbLine
 10
81.85000000000016
 20
245.0105516132646
 30
0.0
 11
81.85000000000016
 21
243.0105516132647
 31
0.0
  0
LINE
  5
230
330
1F
100
AcDbEntity
  8
0
  6
Continuous
 62
     7
100
AcDbLine
 10
88.05000000000021
 20
245.0105516132645
 30
0.0
 11
87.55000000000021
 21
245.0105516132645
 31
0.0
  0
LINE
  5
231
330
1F
100
AcDbEntity
  8
0
  6
Continuous
 62
     7
100
AcDbLine
 10
90.80000000000021
 20
225.3605516132648
 30
0.0
 11
83.50000000000014
 21
225.3605516132648
 31
0.0
  0
LINE
  5
232
330
1F
100
AcDbEntity
  8
0
  6
Continuous
 62
     7
100
AcDbLine
 10
90.80000000000021
 20
230.6605516132648
 30
0.0
 11
90.80000000000021
 21
225.3605516132648
 31
0.0
  0
LINE
  5
233
330
1F
100
AcDbEntity
  8
0
  6
Continuous
 62
     7
100
AcDbLine
 10
88.05000000000021
 20
245.0105516132645
 30
0.0
 11
88.05000000000021
 21
243.0105516132645
 31
0.0
  0
LINE
  5
234
330
1F
100
AcDbEntity
  8
0
  6
Continuous
 62
     7
100
AcDbLine
 10
88.05000000000021
 20
243.0105516132645
 30
0.0
 11
92.3000000000001
 21
243.0105516132647
 31
0.0
  0
LINE
  5
235
330
1F
100
AcDbEntity
  8
0
  6
Continuous
 62
     7
100
AcDbLine
 10
92.3000000000001
 20
243.0105516132647
 30
0.0
 11
92.3000000000001
 21
239.3548118363486
 31
0.0
  0
LINE
  5
236
330
1F
100
AcDbEntity
  8
0
  6
Continuous
 62
     7
100
AcDbLine
 10
81.85000000000016
 20
243.0105516132647
 30
0.0
 11
88.05000000000021
 21
243.0105516132645
 31
0.0
  0
LINE
  5
237
330
1F
100
AcDbEntity
  8
0
  6
Continuous
 62
     7
100
AcDbLine
 10
87.55000000000021
 20
245.0105516132645
 30
0.0
 11
82.35000000000016
 21
245.0105516132646
 31
0.0
  0
LINE
  5
238
330
1F
100
AcDbEntity
  8
0
  6
Continuous
 62
     7
100
AcDbLine
 10
84.02898094212551
 20
229.2605516132648
 30
0.0
 11
84.02898094212551
 21
226.7605516132648
 31
0.0
  0
LINE
  5
239
330
1F
100
AcDbEntity
  8
0
  6
Continuous
 62
     7
100
AcDbLine
 10
84.8000000000001
 20
226.2605516132648
 30
0.0
 11
84.8000000000001
 21
229.7605516132648
 31
0.0
  0
LINE
  5
23A
330
1F
100
AcDbEntity
  8
0
  6
Continuous
 62
     7
100
AcDbLine
 10
83.50000000000014
 20
225.3605516132648
 30
0.0
 11
83.50000000000014
 21
226.2605516132648
 31
0.0
  0
LINE
  5
23B
330
1F
100
AcDbEntity
  8
0
  6
Continuous
 62
     7
100
AcDbLine
 10
83.50000000000014
 20
224.6605516132648
 30
0.0
 11
83.50000000000014
 21
225.3605516132648
 31
0.0
  0
LINE
  5
23C
330
1F
100
AcDbEntity
  8
0
  6
Continuous
 62
     7
100
AcDbLine
 10
80.75000000000014
 20
224.6605516132648
 30
0.0
 11
83.50000000000014
 21
224.6605516132648
 31
0.0
  0
LINE
  5
23D
330
1F
100
AcDbEntity
  8
0
  6
Continuous
 62
     7
100
AcDbLine
 10
84.02898094212551
 20
226.7605516132648
 30
0.0
 11
83.50000000000014
 21
226.7605516132648
 31
0.0
  0
LINE
  5
23E
330
1F
100
AcDbEntity
  8
0
  6
Continuous
 62
     7
100
AcDbLine
 10
83.50000000000014
 20
229.2605516132648
 30
0.0
 11
83.50000000000014
 21
226.7605516132648
 31
0.0
  0
LINE
  5
23F
330
1F
100
AcDbEntity
  8
0
  6
Continuous
 62
     7
100
AcDbLine
 10
83.50000000000014
 20
226.2605516132648
 30
0.0
 11
84.8000000000001
 21
226.2605516132648
 31
0.0
  0
LINE
  5
240
330
1F
100
AcDbEntity
  8
0
  6
Continuous
 62
     7
100
AcDbLine
 10
84.8000000000001
 20
229.7605516132648
 30
0.0
 11
85.8000000000001
 21
229.7605516132648
 31
0.0
  0
LINE
  5
241
330
1F
100
AcDbEntity
  8
0
  6
Continuous
 62
     7
100
AcDbLine
 10
83.50000000000014
 20
229.7605516132648
 30
0.0
 11
84.8000000000001
 21
229.7605516132648
 31
0.0
  0
LINE
  5
242
330
1F
100
AcDbEntity
  8
0
  6
Continuous
 62
     7
100
AcDbLine
 10
84.8000000000001
 20
226.2605516132648
 30
0.0
 11
85.8000000000001
 21
226.2605516132648
 31
0.0
  0
LINE
  5
243
330
1F
100
AcDbEntity
  8
0
  6
Continuous
 62
     7
100
AcDbLine
 10
85.8000000000001
 20
229.7605516132648
 30
0.0
 11
85.8000000000001
 21
226.2605516132648
 31
0.0
  0
LINE
  5
244
330
1F
100
AcDbEntity
  8
0
  6
Continuous
 62
     7
100
AcDbLine
 10
83.45000000000007
 20
229.7605516132648
 30
0.0
 11
83.50000000000014
 21
229.7605516132648
 31
0.0
  0
LINE
  5
245
330
1F
100
AcDbEntity
  8
0
  6
Continuous
 62
     7
100
AcDbLine
 10
83.45000000000007
 20
226.2605516132648
 30
0.0
 11
83.50000000000014
 21
226.2605516132648
 31
0.0
  0
LINE
  5
246
330
1F
100
AcDbEntity
  8
0
  6
Continuous
 62
     7
100
AcDbLine
 10
83.50000000000014
 20
229.7605516132648
 30
0.0
 11
83.50000000000014
 21
230.6605516132648
 31
0.0
  0
LINE
  5
247
330
1F
100
AcDbEntity
  8
0
  6
Continuous
 62
     7
100
AcDbLine
 10
83.50000000000014
 20
229.2605516132648
 30
0.0
 11
83.50000000000014
 21
229.7605516132648
 31
0.0
  0
LINE
  5
248
330
1F
100
AcDbEntity
  8
0
  6
Continuous
 62
     7
100
AcDbLine
 10
84.02898094212551
 20
229.2605516132648
 30
0.0
 11
83.50000000000014
 21
229.2605516132648
 31
0.0
  0
LINE
  5
249
330
1F
100
AcDbEntity
  8
0
  6
Continuous
 62
     7
100
AcDbLine
 10
83.50000000000014
 20
226.2605516132648
 30
0.0
 11
83.50000000000014
 21
226.7605516132648
 31
0.0
  0
LINE
  5
24A
330
1F
100
AcDbEntity
  8
0
  6
Continuous
 62
     7
100
AcDbLine
 10
73.35000000000016
 20
245.0105516132645
 30
0.0
 11
72.85000000000016
 21
245.0105516132645
 31
0.0
  0
LINE
  5
24B
330
1F
100
AcDbEntity
  8
0
  6
Continuous
 62
     7
100
AcDbLine
 10
67.65000000000012
 20
245.0105516132645
 30
0.0
 11
67.15000000000012
 21
245.0105516132645
 31
0.0
  0
LINE
  5
24C
330
1F
100
AcDbEntity
  8
0
  6
Continuous
 62
     7
100
AcDbLine
 10
64.40000000000012
 20
230.6605516132649
 30
0.0
 11
71.70000000000013
 21
230.6605516132648
 31
0.0
  0
LINE
  5
24D
330
1F
100
AcDbEntity
  8
0
  6
Continuous
 62
     7
100
AcDbLine
 10
62.90000000000012
 20
243.0105516132645
 30
0.0
 11
67.15000000000012
 21
243.0105516132646
 31
0.0
  0
LINE
  5
24E
330
1F
100
AcDbEntity
  8
0
  6
Continuous
 62
     7
100
AcDbLine
 10
67.15000000000012
 20
245.0105516132645
 30
0.0
 11
67.15000000000012
 21
243.0105516132646
 31
0.0
  0
LINE
  5
24F
330
1F
100
AcDbEntity
  8
0
  6
Continuous
 62
     7
100
AcDbLine
 10
67.15000000000012
 20
243.0105516132646
 30
0.0
 11
73.35000000000016
 21
243.0105516132646
 31
0.0
  0
LINE
  5
250
330
1F
100
AcDbEntity
  8
0
  6
Continuous
 62
     7
100
AcDbLine
 10
72.85000000000016
 20
245.0105516132645
 30
0.0
 11
67.65000000000012
 21
245.0105516132645
 31
0.0
  0
LINE
  5
251
330
1F
100
AcDbEntity
  8
0
  6
Continuous
 62
     7
100
AcDbLine
 10
73.35000000000016
 20
245.0105516132645
 30
0.0
 11
73.35000000000016
 21
243.0105516132646
 31
0.0
  0
LINE
  5
252
330
1F
100
AcDbEntity
  8
0
  6
Continuous
 62
     7
100
AcDbLine
 10
71.70000000000013
 20
229.2605516132648
 30
0.0
 11
71.1710190578747
 21
229.2605516132648
 31
0.0
  0
LINE
  5
253
330
1F
100
AcDbEntity
  8
0
  6
Continuous
 62
     7
100
AcDbLine
 10
70.40000000000012
 20
229.7605516132648
 30
0.0
 11
71.70000000000013
 21
229.7605516132648
 31
0.0
  0
LINE
  5
254
330
1F
100
AcDbEntity
  8
0
  6
Continuous
 62
     7
100
AcDbLine
 10
70.40000000000012
 20
229.7605516132648
 30
0.0
 11
69.40000000000012
 21
229.7605516132648
 31
0.0
  0
LINE
  5
255
330
1F
100
AcDbEntity
  8
0
  6
Continuous
 62
     7
100
AcDbLine
 10
71.70000000000013
 20
230.6605516132648
 30
0.0
 11
71.70000000000013
 21
231.3605516132649
 31
0.0
  0
LINE
  5
256
330
1F
100
AcDbEntity
  8
0
  6
Continuous
 62
     7
100
AcDbLine
 10
71.70000000000013
 20
229.7605516132648
 30
0.0
 11
71.70000000000013
 21
229.2605516132648
 31
0.0
  0
LINE
  5
257
330
1F
100
AcDbEntity
  8
0
  6
Continuous
 62
     7
100
AcDbLine
 10
71.70000000000013
 20
229.2605516132648
 30
0.0
 11
71.70000000000007
 21
226.7605516132648
 31
0.0
  0
LINE
  5
258
330
1F
100
AcDbEntity
  8
0
  6
Continuous
 62
     7
100
AcDbLine
 10
71.70000000000013
 20
230.6605516132648
 30
0.0
 11
71.70000000000013
 21
229.7605516132648
 31
0.0
  0
LINE
  5
259
330
1F
100
AcDbEntity
  8
0
  6
Continuous
 62
     7
100
AcDbLine
 10
71.75000000000009
 20
229.7605516132648
 30
0.0
 11
71.70000000000013
 21
229.7605516132648
 31
0.0
  0
LINE
  5
25A
330
1F
100
AcDbEntity
  8
0
  6
Continuous
 62
     7
100
AcDbLine
 10
71.70000000000007
 20
226.7605516132648
 30
0.0
 11
71.1710190578747
 21
226.7605516132648
 31
0.0
  0
LINE
  5
25B
330
1F
100
AcDbEntity
  8
0
  6
Continuous
 62
     7
100
AcDbLine
 10
74.45000000000007
 20
222.6605516132648
 30
0.0
 11
74.45000000000007
 21
224.6605516132648
 31
0.0
  0
LINE
  5
25C
330
1F
100
AcDbEntity
  8
0
  6
Continuous
 62
     7
100
AcDbLine
 10
71.70000000000007
 20
226.7605516132648
 30
0.0
 11
71.70000000000007
 21
226.2605516132648
 31
0.0
  0
LINE
  5
25D
330
1F
100
AcDbEntity
  8
0
  6
Continuous
 62
     7
100
AcDbLine
 10
70.40000000000012
 20
226.2605516132648
 30
0.0
 11
69.40000000000012
 21
226.2605516132648
 31
0.0
  0
LINE
  5
25E
330
1F
100
AcDbEntity
  8
0
  6
Continuous
 62
     7
100
AcDbLine
 10
71.1710190578747
 20
226.7605516132648
 30
0.0
 11
71.1710190578747
 21
229.2605516132648
 31
0.0
  0
LINE
  5
25F
330
1F
100
AcDbEntity
  8
0
  6
Continuous
 62
     7
100
AcDbLine
 10
70.40000000000012
 20
229.7605516132648
 30
0.0
 11
70.40000000000012
 21
226.2605516132648
 31
0.0
  0
LINE
  5
260
330
1F
100
AcDbEntity
  8
0
  6
Continuous
 62
     7
100
AcDbLine
 10
69.40000000000012
 20
226.2605516132648
 30
0.0
 11
69.40000000000012
 21
229.7605516132648
 31
0.0
  0
LINE
  5
261
330
1F
100
AcDbEntity
  8
0
  6
Continuous
 62
     7
100
AcDbLine
 10
64.40000000000012
 20
230.6605516132649
 30
0.0
 11
64.40000000000012
 21
225.3605516132649
 31
0.0
  0
LINE
  5
262
330
1F
100
AcDbEntity
  8
0
  6
Continuous
 62
     7
100
AcDbLine
 10
64.40000000000012
 20
238.5105516132642
 30
0.0
 11
64.40000000000012
 21
230.6605516132649
 31
0.0
  0
LINE
  5
263
330
1F
100
AcDbEntity
  8
0
  6
Continuous
 62
     7
100
AcDbLine
 10
64.40000000000012
 20
225.3605516132649
 30
0.0
 11
64.40000000000012
 21
218.5105516132647
 31
0.0
  0
LINE
  5
264
330
1F
100
AcDbEntity
  8
0
  6
Continuous
 62
     7
100
AcDbLine
 10
71.75000000000009
 20
226.2605516132648
 30
0.0
 11
71.70000000000007
 21
226.2605516132648
 31
0.0
  0
LINE
  5
265
330
1F
100
AcDbEntity
  8
0
  6
Continuous
 62
     7
100
AcDbLine
 10
71.70000000000007
 20
226.2605516132648
 30
0.0
 11
71.70000000000007
 21
225.3605516132648
 31
0.0
  0
LINE
  5
266
330
1F
100
AcDbEntity
  8
0
  6
Continuous
 62
     7
100
AcDbLine
 10
71.70000000000007
 20
224.6605516132648
 30
0.0
 11
71.70000000000007
 21
225.3605516132648
 31
0.0
  0
LINE
  5
267
330
1F
100
AcDbEntity
  8
0
  6
Continuous
 62
     7
100
AcDbLine
 10
70.40000000000012
 20
226.2605516132648
 30
0.0
 11
71.70000000000007
 21
226.2605516132648
 31
0.0
  0
LINE
  5
268
330
1F
100
AcDbEntity
  8
0
  6
Continuous
 62
     7
100
AcDbLine
 10
71.70000000000007
 20
224.6605516132648
 30
0.0
 11
74.45000000000007
 21
224.6605516132648
 31
0.0
  0
LINE
  5
269
330
1F
100
AcDbEntity
  8
0
  6
Continuous
 62
     7
100
AcDbLine
 10
71.70000000000007
 20
225.3605516132648
 30
0.0
 11
64.40000000000012
 21
225.3605516132649
 31
0.0
  0
LINE
  5
26A
330
1F
100
AcDbEntity
  8
0
  6
DASHED
 62
     7
100
AcDbLine
 10
76.00000000000009
 20
222.7105516132648
 30
0.0
 11
79.20000000000007
 21
222.7105516132648
 31
0.0
  0
LINE
  5
26B
330
1F
100
AcDbEntity
  8
0
  6
DASHED
 62
     7
100
AcDbLine
 10
72.60000000000005
 20
224.7105516132648
 30
0.0
 11
71.75000000000009
 21
224.7105516132648
 31
0.0
  0
LINE
  5
26C
330
1F
100
AcDbEntity
  8
0
  6
DASHED
 62
     7
100
AcDbLine
 10
74.45000000000007
 20
224.1105516132647
 30
0.0
 11
74.60000000000005
 21
224.1105516132647
 31
0.0
  0
LINE
  5
26D
330
1F
100
AcDbEntity
  8
0
  6
DASHED
 62
     7
100
AcDbLine
 10
73.60000000000005
 20
224.6605516132648
 30
0.0
 11
73.60000000000005
 21
224.7105516132648
 31
0.0
  0
LINE
  5
26E
330
1F
100
AcDbEntity
  8
0
  6
DASHED
 62
     7
100
AcDbLine
 10
73.60000000000005
 20
224.7105516132648
 30
0.0
 11
73.15000000000012
 21
224.7105516132648
 31
0.0
  0
LINE
  5
26F
330
1F
100
AcDbEntity
  8
0
  6
DASHED
 62
     7
100
AcDbLine
 10
73.15000000000012
 20
224.7105516132648
 30
0.0
 11
72.60000000000005
 21
224.7105516132648
 31
0.0
  0
LINE
  5
270
330
1F
100
AcDbEntity
  8
0
  6
DASHED
 62
     7
100
AcDbLine
 10
73.15000000000012
 20
224.7105516132648
 30
0.0
 11
73.15000000000012
 21
225.2105516132648
 31
0.0
  0
LINE
  5
271
330
1F
100
AcDbEntity
  8
0
  6
DASHED
 62
     7
100
AcDbLine
 10
72.60000000000005
 20
224.7105516132648
 30
0.0
 11
72.60000000000005
 21
225.2105516132648
 31
0.0
  0
LINE
  5
272
330
1F
100
AcDbEntity
  8
0
  6
DASHED
 62
     7
100
AcDbLine
 10
71.75000000000009
 20
225.2105516132648
 30
0.0
 11
71.75000000000009
 21
224.7105516132648
 31
0.0
  0
LINE
  5
273
330
1F
100
AcDbEntity
  8
0
  6
DASHED
 62
     7
100
AcDbLine
 10
80.60000000000005
 20
224.2105516132648
 30
0.0
 11
80.60000000000005
 21
223.5105516132647
 31
0.0
  0
LINE
  5
274
330
1F
100
AcDbEntity
  8
0
  6
DASHED
 62
     7
100
AcDbLine
 10
74.60000000000005
 20
224.2105516132648
 30
0.0
 11
80.60000000000005
 21
224.2105516132648
 31
0.0
  0
LINE
  5
275
330
1F
100
AcDbEntity
  8
0
  6
DASHED
 62
     7
100
AcDbLine
 10
74.60000000000005
 20
224.7105516132648
 30
0.0
 11
73.60000000000005
 21
224.7105516132648
 31
0.0
  0
LINE
  5
276
330
1F
100
AcDbEntity
  8
0
  6
DASHED
 62
     7
100
AcDbLine
 10
74.10000000000005
 20
231.3105516132648
 30
0.0
 11
73.75500000000008
 21
231.3105516132648
 31
0.0
  0
LINE
  5
277
330
1F
100
AcDbEntity
  8
0
  6
DASHED
 62
     7
100
AcDbLine
 10
74.30500000000009
 20
231.3105516132648
 30
0.0
 11
74.30500000000009
 21
230.6105516132647
 31
0.0
  0
LINE
  5
278
330
1F
100
AcDbEntity
  8
0
  6
DASHED
 62
     7
100
AcDbLine
 10
73.75500000000008
 20
231.3105516132648
 30
0.0
 11
73.75500000000008
 21
230.6105516132647
 31
0.0
  0
LINE
  5
279
330
1F
100
AcDbEntity
  8
0
  6
DASHED
 62
     7
100
AcDbLine
 10
71.75000000000009
 20
231.3105516132648
 30
0.0
 11
71.75000000000009
 21
230.6105516132647
 31
0.0
  0
LINE
  5
27A
330
1F
100
AcDbEntity
  8
0
  6
DASHED
 62
     7
100
AcDbLine
 10
71.75000000000009
 20
226.1105516132647
 30
0.0
 11
71.75000000000009
 21
230.6105516132647
 31
0.0
  0
LINE
  5
27B
330
1F
100
AcDbEntity
  8
0
  6
DASHED
 62
     7
100
AcDbLine
 10
71.75000000000009
 20
230.6105516132647
 30
0.0
 11
73.75500000000008
 21
230.6105516132647
 31
0.0
  0
LINE
  5
27C
330
1F
100
AcDbEntity
  8
0
  6
DASHED
 62
     7
100
AcDbLine
 10
73.75500000000008
 20
230.6105516132647
 30
0.0
 11
73.75500000000008
 21
229.3105516132648
 31
0.0
  0
LINE
  5
27D
330
1F
100
AcDbEntity
  8
0
  6
DASHED
 62
     7
100
AcDbLine
 10
73.15000000000006
 20
227.7105516132647
 30
0.0
 11
73.15000000000012
 21
228.1105516132648
 31
0.0
  0
LINE
  5
27E
330
1F
100
AcDbEntity
  8
0
  6
DASHED
 62
     7
100
AcDbLine
 10
73.15000000000012
 20
228.1105516132648
 30
0.0
 11
72.60000000000005
 21
228.1105516132648
 31
0.0
  0
LINE
  5
27F
330
1F
100
AcDbEntity
  8
0
  6
DASHED
 62
     7
100
AcDbLine
 10
73.75500000000008
 20
229.3105516132648
 30
0.0
 11
74.30500000000009
 21
229.3105516132648
 31
0.0
  0
LINE
  5
280
330
1F
100
AcDbEntity
  8
0
  6
DASHED
 62
     7
100
AcDbLine
 10
71.75000000000009
 20
226.1105516132647
 30
0.0
 11
72.60000000000005
 21
226.1105516132647
 31
0.0
  0
LINE
  5
281
330
1F
100
AcDbEntity
  8
0
  6
DASHED
 62
     7
100
AcDbLine
 10
71.75000000000009
 20
225.2105516132648
 30
0.0
 11
71.75000000000009
 21
226.1105516132647
 31
0.0
  0
LINE
  5
282
330
1F
100
AcDbEntity
  8
0
  6
DASHED
 62
     7
100
AcDbLine
 10
72.60000000000005
 20
225.2105516132648
 30
0.0
 11
71.75000000000009
 21
225.2105516132648
 31
0.0
  0
LINE
  5
283
330
1F
100
AcDbEntity
  8
0
  6
DASHED
 62
     7
100
AcDbLine
 10
72.60000000000005
 20
226.1105516132647
 30
0.0
 11
72.60000000000005
 21
225.2105516132648
 31
0.0
  0
LINE
  5
284
330
1F
100
AcDbEntity
  8
0
  6
DASHED
 62
     7
100
AcDbLine
 10
73.15000000000012
 20
225.2105516132648
 30
0.0
 11
73.15000000000012
 21
226.1105516132647
 31
0.0
  0
LINE
  5
285
330
1F
100
AcDbEntity
  8
0
  6
DASHED
 62
     7
100
AcDbLine
 10
74.60000000000005
 20
225.2105516132648
 30
0.0
 11
73.15000000000012
 21
225.2105516132648
 31
0.0
  0
LINE
  5
286
330
1F
100
AcDbEntity
  8
0
  6
DASHED
 62
     7
100
AcDbLine
 10
72.60000000000005
 20
228.1105516132648
 30
0.0
 11
72.60000000000005
 21
226.1105516132647
 31
0.0
  0
LINE
  5
287
330
1F
100
AcDbEntity
  8
0
  6
DASHED
 62
     7
100
AcDbLine
 10
73.75500000000008
 20
231.3105516132648
 30
0.0
 11
71.75000000000009
 21
231.3105516132648
 31
0.0
  0
LINE
  5
288
330
1F
100
AcDbEntity
  8
0
  6
DASHED
 62
     7
100
AcDbLine
 10
76.81500000000008
 20
231.3105516132648
 30
0.0
 11
76.81500000000008
 21
230.6105516132647
 31
0.0
  0
LINE
  5
289
330
1F
100
AcDbEntity
  8
0
  6
DASHED
 62
     7
100
AcDbLine
 10
74.30500000000009
 20
231.3105516132648
 30
0.0
 11
74.10000000000005
 21
231.3105516132648
 31
0.0
  0
LINE
  5
28A
330
1F
100
AcDbEntity
  8
0
  6
DASHED
 62
     7
100
AcDbLine
 10
77.3650000000001
 20
231.3105516132648
 30
0.0
 11
77.3650000000001
 21
230.6105516132647
 31
0.0
  0
LINE
  5
28B
330
1F
100
AcDbEntity
  8
0
  6
DASHED
 62
     7
100
AcDbLine
 10
74.77500000000012
 20
231.3105516132648
 30
0.0
 11
74.30500000000009
 21
231.3105516132648
 31
0.0
  0
LINE
  5
28C
330
1F
100
AcDbEntity
  8
0
  6
DASHED
 62
     7
100
AcDbLine
 10
74.77500000000012
 20
231.3105516132648
 30
0.0
 11
74.77500000000012
 21
230.6105516132647
 31
0.0
  0
LINE
  5
28D
330
1F
100
AcDbEntity
  8
0
  6
DASHED
 62
     7
100
AcDbLine
 10
76.34500000000006
 20
231.3105516132648
 30
0.0
 11
76.34500000000006
 21
230.6105516132647
 31
0.0
  0
LINE
  5
28E
330
1F
100
AcDbEntity
  8
0
  6
DASHED
 62
     7
100
AcDbLine
 10
75.7950000000001
 20
231.3105516132648
 30
0.0
 11
75.7950000000001
 21
230.6105516132647
 31
0.0
  0
LINE
  5
28F
330
1F
100
AcDbEntity
  8
0
  6
DASHED
 62
     7
100
AcDbLine
 10
75.32500000000007
 20
231.3105516132648
 30
0.0
 11
75.32500000000007
 21
230.6105516132647
 31
0.0
  0
LINE
  5
290
330
1F
100
AcDbEntity
  8
0
  6
DASHED
 62
     7
100
AcDbLine
 10
75.50000000000009
 20
231.3105516132648
 30
0.0
 11
75.32500000000007
 21
231.3105516132648
 31
0.0
  0
LINE
  5
291
330
1F
100
AcDbEntity
  8
0
  6
DASHED
 62
     7
100
AcDbLine
 10
75.7950000000001
 20
231.3105516132648
 30
0.0
 11
75.50000000000009
 21
231.3105516132648
 31
0.0
  0
LINE
  5
292
330
1F
100
AcDbEntity
  8
0
  6
DASHED
 62
     7
100
AcDbLine
 10
76.34500000000006
 20
231.3105516132648
 30
0.0
 11
75.7950000000001
 21
231.3105516132648
 31
0.0
  0
LINE
  5
293
330
1F
100
AcDbEntity
  8
0
  6
DASHED
 62
     7
100
AcDbLine
 10
76.81500000000008
 20
231.3105516132648
 30
0.0
 11
76.34500000000006
 21
231.3105516132648
 31
0.0
  0
LINE
  5
294
330
1F
100
AcDbEntity
  8
0
  6
DASHED
 62
     7
100
AcDbLine
 10
75.32500000000007
 20
231.3105516132648
 30
0.0
 11
74.77500000000012
 21
231.3105516132648
 31
0.0
  0
LINE
  5
295
330
1F
100
AcDbEntity
  8
0
  6
DASHED
 62
     7
100
AcDbLine
 10
81.44500000000008
 20
231.3105516132648
 30
0.0
 11
81.10000000000005
 21
231.3105516132648
 31
0.0
  0
LINE
  5
296
330
1F
100
AcDbEntity
  8
0
  6
DASHED
 62
     7
100
AcDbLine
 10
80.4250000000001
 20
231.3105516132648
 30
0.0
 11
79.87500000000014
 21
231.3105516132648
 31
0.0
  0
LINE
  5
297
330
1F
100
AcDbEntity
  8
0
  6
DASHED
 62
     7
100
AcDbLine
 10
80.89500000000012
 20
231.3105516132648
 30
0.0
 11
80.4250000000001
 21
231.3105516132648
 31
0.0
  0
LINE
  5
298
330
1F
100
AcDbEntity
  8
0
  6
DASHED
 62
     7
100
AcDbLine
 10
78.85500000000005
 20
231.3105516132648
 30
0.0
 11
78.38500000000008
 21
231.3105516132648
 31
0.0
  0
LINE
  5
299
330
1F
100
AcDbEntity
  8
0
  6
DASHED
 62
     7
100
AcDbLine
 10
79.40500000000011
 20
231.3105516132648
 30
0.0
 11
78.85500000000005
 21
231.3105516132648
 31
0.0
  0
LINE
  5
29A
330
1F
100
AcDbEntity
  8
0
  6
DASHED
 62
     7
100
AcDbLine
 10
79.70000000000007
 20
231.3105516132648
 30
0.0
 11
79.40500000000011
 21
231.3105516132648
 31
0.0
  0
LINE
  5
29B
330
1F
100
AcDbEntity
  8
0
  6
DASHED
 62
     7
100
AcDbLine
 10
77.83500000000006
 20
231.3105516132648
 30
0.0
 11
77.3650000000001
 21
231.3105516132648
 31
0.0
  0
LINE
  5
29C
330
1F
100
AcDbEntity
  8
0
  6
DASHED
 62
     7
100
AcDbLine
 10
77.3650000000001
 20
231.3105516132648
 30
0.0
 11
76.81500000000008
 21
231.3105516132648
 31
0.0
  0
LINE
  5
29D
330
1F
100
AcDbEntity
  8
0
  6
DASHED
 62
     7
100
AcDbLine
 10
78.38500000000008
 20
231.3105516132648
 30
0.0
 11
77.83500000000006
 21
231.3105516132648
 31
0.0
  0
LINE
  5
29E
330
1F
100
AcDbEntity
  8
0
  6
DASHED
 62
     7
100
AcDbLine
 10
79.87500000000014
 20
231.3105516132648
 30
0.0
 11
79.70000000000007
 21
231.3105516132648
 31
0.0
  0
LINE
  5
29F
330
1F
100
AcDbEntity
  8
0
  6
DASHED
 62
     7
100
AcDbLine
 10
79.87500000000014
 20
231.3105516132648
 30
0.0
 11
79.87500000000014
 21
230.6105516132647
 31
0.0
  0
LINE
  5
2A0
330
1F
100
AcDbEntity
  8
0
  6
DASHED
 62
     7
100
AcDbLine
 10
79.40500000000011
 20
231.3105516132648
 30
0.0
 11
79.40500000000011
 21
230.6105516132647
 31
0.0
  0
LINE
  5
2A1
330
1F
100
AcDbEntity
  8
0
  6
DASHED
 62
     7
100
AcDbLine
 10
77.83500000000006
 20
231.3105516132648
 30
0.0
 11
77.83500000000006
 21
230.6105516132647
 31
0.0
  0
LINE
  5
2A2
330
1F
100
AcDbEntity
  8
0
  6
DASHED
 62
     7
100
AcDbLine
 10
78.38500000000008
 20
231.3105516132648
 30
0.0
 11
78.38500000000008
 21
230.6105516132647
 31
0.0
  0
LINE
  5
2A3
330
1F
100
AcDbEntity
  8
0
  6
DASHED
 62
     7
100
AcDbLine
 10
78.85500000000005
 20
231.3105516132648
 30
0.0
 11
78.85500000000005
 21
230.6105516132647
 31
0.0
  0
LINE
  5
2A4
330
1F
100
AcDbEntity
  8
0
  6
DASHED
 62
     7
100
AcDbLine
 10
80.4250000000001
 20
231.3105516132648
 30
0.0
 11
80.4250000000001
 21
230.6105516132647
 31
0.0
  0
LINE
  5
2A5
330
1F
100
AcDbEntity
  8
0
  6
DASHED
 62
     7
100
AcDbLine
 10
82.0500000000001
 20
226.1105516132647
 30
0.0
 11
82.0500000000001
 21
227.5105516132647
 31
0.0
  0
LINE
  5
2A6
330
1F
100
AcDbEntity
  8
0
  6
DASHED
 62
     7
100
AcDbLine
 10
80.60000000000005
 20
226.1105516132647
 30
0.0
 11
82.0500000000001
 21
226.1105516132647
 31
0.0
  0
LINE
  5
2A7
330
1F
100
AcDbEntity
  8
0
  6
DASHED
 62
     7
100
AcDbLine
 10
73.15000000000012
 20
226.1105516132647
 30
0.0
 11
74.60000000000005
 21
226.1105516132647
 31
0.0
  0
LINE
  5
2A8
330
1F
100
AcDbEntity
  8
0
  6
DASHED
 62
     7
100
AcDbLine
 10
73.15000000000012
 20
227.5105516132647
 30
0.0
 11
73.15000000000012
 21
226.1105516132647
 31
0.0
  0
LINE
  5
2A9
330
1F
100
AcDbEntity
  8
0
  6
DASHED
 62
     7
100
AcDbLine
 10
73.15000000000012
 20
227.5105516132647
 30
0.0
 11
73.15000000000006
 21
227.7105516132647
 31
0.0
  0
LINE
  5
2AA
330
1F
100
AcDbEntity
  8
0
  6
DASHED
 62
     7
100
AcDbLine
 10
74.60000000000005
 20
226.1105516132647
 30
0.0
 11
80.60000000000005
 21
226.1105516132647
 31
0.0
  0
LINE
  5
2AB
330
1F
100
AcDbEntity
  8
0
  6
DASHED
 62
     7
100
AcDbLine
 10
73.15000000000006
 20
227.7105516132647
 30
0.0
 11
82.0500000000001
 21
227.7105516132647
 31
0.0
  0
LINE
  5
2AC
330
1F
100
AcDbEntity
  8
0
  6
DASHED
 62
     7
100
AcDbLine
 10
82.0500000000001
 20
227.5105516132647
 30
0.0
 11
73.15000000000012
 21
227.5105516132647
 31
0.0
  0
LINE
  5
2AD
330
1F
100
AcDbEntity
  8
0
  6
DASHED
 62
     7
100
AcDbLine
 10
81.60000000000005
 20
224.6605516132648
 30
0.0
 11
81.60000000000005
 21
224.7105516132648
 31
0.0
  0
LINE
  5
2AE
330
1F
100
AcDbEntity
  8
0
  6
DASHED
 62
     7
100
AcDbLine
 10
76.00000000000009
 20
222.8105516132648
 30
0.0
 11
74.60000000000005
 21
222.8105516132648
 31
0.0
  0
LINE
  5
2AF
330
1F
100
AcDbEntity
  8
0
  6
DASHED
 62
     7
100
AcDbLine
 10
80.60000000000005
 20
223.5105516132647
 30
0.0
 11
80.60000000000005
 21
222.8105516132648
 31
0.0
  0
LINE
  5
2B0
330
1F
100
AcDbEntity
  8
0
  6
DASHED
 62
     7
100
AcDbLine
 10
79.20000000000007
 20
222.8105516132648
 30
0.0
 11
80.60000000000005
 21
222.8105516132648
 31
0.0
  0
LINE
  5
2B1
330
1F
100
AcDbEntity
  8
0
  6
DASHED
 62
     7
100
AcDbLine
 10
74.60000000000005
 20
223.5105516132647
 30
0.0
 11
80.60000000000005
 21
223.5105516132647
 31
0.0
  0
LINE
  5
2B2
330
1F
100
AcDbEntity
  8
0
  6
DASHED
 62
     7
100
AcDbLine
 10
80.75000000000014
 20
224.1105516132647
 30
0.0
 11
80.60000000000005
 21
224.1105516132647
 31
0.0
  0
LINE
  5
2B3
330
1F
100
AcDbEntity
  8
0
  6
DASHED
 62
     7
100
AcDbLine
 10
79.20000000000007
 20
222.7105516132648
 30
0.0
 11
79.20000000000007
 21
222.6605516132648
 31
0.0
  0
LINE
  5
2B4
330
1F
100
AcDbEntity
  8
0
  6
DASHED
 62
     7
100
AcDbLine
 10
74.10000000000005
 20
231.3605516132649
 30
0.0
 11
74.10000000000005
 21
231.3105516132648
 31
0.0
  0
LINE
  5
2B5
330
1F
100
AcDbEntity
  8
0
  6
DASHED
 62
     7
100
AcDbLine
 10
75.50000000000009
 20
231.3605516132649
 30
0.0
 11
75.50000000000009
 21
231.3105516132648
 31
0.0
  0
LINE
  5
2B6
330
1F
100
AcDbEntity
  8
0
  6
DASHED
 62
     7
100
AcDbLine
 10
74.30500000000009
 20
229.3105516132648
 30
0.0
 11
74.30500000000009
 21
230.6105516132647
 31
0.0
  0
LINE
  5
2B7
330
1F
100
AcDbEntity
  8
0
  6
DASHED
 62
     7
100
AcDbLine
 10
74.30500000000009
 20
230.6105516132647
 30
0.0
 11
74.77500000000012
 21
230.6105516132647
 31
0.0
  0
LINE
  5
2B8
330
1F
100
AcDbEntity
  8
0
  6
DASHED
 62
     7
100
AcDbLine
 10
75.7950000000001
 20
230.6105516132647
 30
0.0
 11
75.7950000000001
 21
229.3105516132648
 31
0.0
  0
LINE
  5
2B9
330
1F
100
AcDbEntity
  8
0
  6
DASHED
 62
     7
100
AcDbLine
 10
74.77500000000012
 20
230.6105516132647
 30
0.0
 11
74.77500000000012
 21
229.3105516132648
 31
0.0
  0
LINE
  5
2BA
330
1F
100
AcDbEntity
  8
0
  6
DASHED
 62
     7
100
AcDbLine
 10
75.32500000000007
 20
229.3105516132648
 30
0.0
 11
75.32500000000007
 21
230.6105516132647
 31
0.0
  0
LINE
  5
2BB
330
1F
100
AcDbEntity
  8
0
  6
DASHED
 62
     7
100
AcDbLine
 10
75.32500000000007
 20
230.6105516132647
 30
0.0
 11
75.7950000000001
 21
230.6105516132647
 31
0.0
  0
LINE
  5
2BC
330
1F
100
AcDbEntity
  8
0
  6
DASHED
 62
     7
100
AcDbLine
 10
74.60000000000005
 20
223.5105516132647
 30
0.0
 11
74.60000000000005
 21
222.8105516132648
 31
0.0
  0
LINE
  5
2BD
330
1F
100
AcDbEntity
  8
0
  6
DASHED
 62
     7
100
AcDbLine
 10
74.60000000000005
 20
224.2105516132648
 30
0.0
 11
74.60000000000005
 21
223.5105516132647
 31
0.0
  0
LINE
  5
2BE
330
1F
100
AcDbEntity
  8
0
  6
DASHED
 62
     7
100
AcDbLine
 10
81.10000000000005
 20
231.3605516132649
 30
0.0
 11
81.10000000000005
 21
231.3105516132648
 31
0.0
  0
LINE
  5
2BF
330
1F
100
AcDbEntity
  8
0
  6
DASHED
 62
     7
100
AcDbLine
 10
83.45000000000007
 20
231.3105516132648
 30
0.0
 11
81.44500000000008
 21
231.3105516132648
 31
0.0
  0
LINE
  5
2C0
330
1F
100
AcDbEntity
  8
0
  6
DASHED
 62
     7
100
AcDbLine
 10
81.10000000000005
 20
231.3105516132648
 30
0.0
 11
80.89500000000012
 21
231.3105516132648
 31
0.0
  0
LINE
  5
2C1
330
1F
100
AcDbEntity
  8
0
  6
DASHED
 62
     7
100
AcDbLine
 10
80.89500000000012
 20
231.3105516132648
 30
0.0
 11
80.89500000000012
 21
230.6105516132647
 31
0.0
  0
LINE
  5
2C2
330
1F
100
AcDbEntity
  8
0
  6
DASHED
 62
     7
100
AcDbLine
 10
81.44500000000008
 20
231.3105516132648
 30
0.0
 11
81.44500000000008
 21
230.6105516132647
 31
0.0
  0
LINE
  5
2C3
330
1F
100
AcDbEntity
  8
0
  6
DASHED
 62
     7
100
AcDbLine
 10
83.45000000000007
 20
230.6105516132647
 30
0.0
 11
83.45000000000007
 21
231.3105516132648
 31
0.0
  0
LINE
  5
2C4
330
1F
100
AcDbEntity
  8
0
  6
DASHED
 62
     7
100
AcDbLine
 10
82.0500000000001
 20
228.1105516132648
 30
0.0
 11
82.0500000000001
 21
227.7105516132647
 31
0.0
  0
LINE
  5
2C5
330
1F
100
AcDbEntity
  8
0
  6
DASHED
 62
     7
100
AcDbLine
 10
82.0500000000001
 20
224.7105516132648
 30
0.0
 11
81.60000000000005
 21
224.7105516132648
 31
0.0
  0
LINE
  5
2C6
330
1F
100
AcDbEntity
  8
0
  6
DASHED
 62
     7
100
AcDbLine
 10
83.45000000000007
 20
230.6105516132647
 30
0.0
 11
83.45000000000007
 21
226.1105516132647
 31
0.0
  0
LINE
  5
2C7
330
1F
100
AcDbEntity
  8
0
  6
DASHED
 62
     7
100
AcDbLine
 10
83.45000000000007
 20
224.7105516132648
 30
0.0
 11
83.45000000000007
 21
225.2105516132648
 31
0.0
  0
LINE
  5
2C8
330
1F
100
AcDbEntity
  8
0
  6
DASHED
 62
     7
100
AcDbLine
 10
82.60000000000005
 20
226.1105516132647
 30
0.0
 11
82.60000000000005
 21
228.1105516132648
 31
0.0
  0
LINE
  5
2C9
330
1F
100
AcDbEntity
  8
0
  6
DASHED
 62
     7
100
AcDbLine
 10
82.60000000000005
 20
225.2105516132648
 30
0.0
 11
82.60000000000005
 21
226.1105516132647
 31
0.0
  0
LINE
  5
2CA
330
1F
100
AcDbEntity
  8
0
  6
DASHED
 62
     7
100
AcDbLine
 10
82.60000000000005
 20
228.1105516132648
 30
0.0
 11
82.0500000000001
 21
228.1105516132648
 31
0.0
  0
LINE
  5
2CB
330
1F
100
AcDbEntity
  8
0
  6
DASHED
 62
     7
100
AcDbLine
 10
82.60000000000005
 20
224.7105516132648
 30
0.0
 11
82.0500000000001
 21
224.7105516132648
 31
0.0
  0
LINE
  5
2CC
330
1F
100
AcDbEntity
  8
0
  6
DASHED
 62
     7
100
AcDbLine
 10
82.60000000000005
 20
224.7105516132648
 30
0.0
 11
82.60000000000005
 21
225.2105516132648
 31
0.0
  0
LINE
  5
2CD
330
1F
100
AcDbEntity
  8
0
  6
DASHED
 62
     7
100
AcDbLine
 10
82.0500000000001
 20
226.1105516132647
 30
0.0
 11
82.0500000000001
 21
225.2105516132648
 31
0.0
  0
LINE
  5
2CE
330
1F
100
AcDbEntity
  8
0
  6
DASHED
 62
     7
100
AcDbLine
 10
82.0500000000001
 20
224.7105516132648
 30
0.0
 11
82.0500000000001
 21
225.2105516132648
 31
0.0
  0
LINE
  5
2CF
330
1F
100
AcDbEntity
  8
0
  6
DASHED
 62
     7
100
AcDbLine
 10
82.60000000000005
 20
226.1105516132647
 30
0.0
 11
83.45000000000007
 21
226.1105516132647
 31
0.0
  0
LINE
  5
2D0
330
1F
100
AcDbEntity
  8
0
  6
DASHED
 62
     7
100
AcDbLine
 10
83.45000000000007
 20
226.1105516132647
 30
0.0
 11
83.45000000000007
 21
225.2105516132648
 31
0.0
  0
LINE
  5
2D1
330
1F
100
AcDbEntity
  8
0
  6
DASHED
 62
     7
100
AcDbLine
 10
83.45000000000007
 20
225.2105516132648
 30
0.0
 11
82.60000000000005
 21
225.2105516132648
 31
0.0
  0
LINE
  5
2D2
330
1F
100
AcDbEntity
  8
0
  6
DASHED
 62
     7
100
AcDbLine
 10
83.45000000000007
 20
224.7105516132648
 30
0.0
 11
82.60000000000005
 21
224.7105516132648
 31
0.0
  0
LINE
  5
2D3
330
1F
100
AcDbEntity
  8
0
  6
DASHED
 62
     7
100
AcDbLine
 10
80.89500000000012
 20
230.6105516132647
 30
0.0
 11
80.89500000000012
 21
229.3105516132648
 31
0.0
  0
LINE
  5
2D4
330
1F
100
AcDbEntity
  8
0
  6
DASHED
 62
     7
100
AcDbLine
 10
80.89500000000012
 20
229.3105516132648
 30
0.0
 11
81.44500000000008
 21
229.3105516132648
 31
0.0
  0
LINE
  5
2D5
330
1F
100
AcDbEntity
  8
0
  6
DASHED
 62
     7
100
AcDbLine
 10
81.44500000000008
 20
229.3105516132648
 30
0.0
 11
81.44500000000008
 21
230.6105516132647
 31
0.0
  0
LINE
  5
2D6
330
1F
100
AcDbEntity
  8
0
  6
DASHED
 62
     7
100
AcDbLine
 10
81.44500000000008
 20
230.6105516132647
 30
0.0
 11
83.45000000000007
 21
230.6105516132647
 31
0.0
  0
LINE
  5
2D7
330
1F
100
AcDbEntity
  8
0
  6
DASHED
 62
     7
100
AcDbLine
 10
82.0500000000001
 20
227.7105516132647
 30
0.0
 11
82.0500000000001
 21
227.5105516132647
 31
0.0
  0
LINE
  5
2D8
330
1F
100
AcDbEntity
  8
0
  6
DASHED
 62
     7
100
AcDbLine
 10
80.60000000000005
 20
225.2105516132648
 30
0.0
 11
80.60000000000005
 21
224.7105516132648
 31
0.0
  0
LINE
  5
2D9
330
1F
100
AcDbEntity
  8
0
  6
DASHED
 62
     7
100
AcDbLine
 10
80.60000000000005
 20
224.7105516132648
 30
0.0
 11
80.60000000000005
 21
224.2105516132648
 31
0.0
  0
LINE
  5
2DA
330
1F
100
AcDbEntity
  8
0
  6
DASHED
 62
     7
100
AcDbLine
 10
80.60000000000005
 20
226.1105516132647
 30
0.0
 11
80.60000000000005
 21
225.2105516132648
 31
0.0
  0
LINE
  5
2DB
330
1F
100
AcDbEntity
  8
0
  6
DASHED
 62
     7
100
AcDbLine
 10
81.60000000000005
 20
224.7105516132648
 30
0.0
 11
80.60000000000005
 21
224.7105516132648
 31
0.0
  0
LINE
  5
2DC
330
1F
100
AcDbEntity
  8
0
  6
DASHED
 62
     7
100
AcDbLine
 10
82.0500000000001
 20
225.2105516132648
 30
0.0
 11
80.60000000000005
 21
225.2105516132648
 31
0.0
  0
LINE
  5
2DD
330
1F
100
AcDbEntity
  8
0
  6
DASHED
 62
     7
100
AcDbLine
 10
79.70000000000007
 20
231.3605516132649
 30
0.0
 11
79.70000000000007
 21
231.3105516132648
 31
0.0
  0
LINE
  5
2DE
330
1F
100
AcDbEntity
  8
0
  6
DASHED
 62
     7
100
AcDbLine
 10
78.38500000000008
 20
229.3105516132648
 30
0.0
 11
78.38500000000008
 21
230.6105516132647
 31
0.0
  0
LINE
  5
2DF
330
1F
100
AcDbEntity
  8
0
  6
DASHED
 62
     7
100
AcDbLine
 10
78.38500000000008
 20
230.6105516132647
 30
0.0
 11
78.85500000000005
 21
230.6105516132647
 31
0.0
  0
LINE
  5
2E0
330
1F
100
AcDbEntity
  8
0
  6
DASHED
 62
     7
100
AcDbLine
 10
78.85500000000005
 20
230.6105516132647
 30
0.0
 11
78.85500000000005
 21
229.3105516132648
 31
0.0
  0
LINE
  5
2E1
330
1F
100
AcDbEntity
  8
0
  6
DASHED
 62
     7
100
AcDbLine
 10
78.85500000000005
 20
229.3105516132648
 30
0.0
 11
79.40500000000011
 21
229.3105516132648
 31
0.0
  0
LINE
  5
2E2
330
1F
100
AcDbEntity
  8
0
  6
DASHED
 62
     7
100
AcDbLine
 10
79.87500000000014
 20
229.3105516132648
 30
0.0
 11
80.4250000000001
 21
229.3105516132648
 31
0.0
  0
LINE
  5
2E3
330
1F
100
AcDbEntity
  8
0
  6
DASHED
 62
     7
100
AcDbLine
 10
79.40500000000011
 20
230.6105516132647
 30
0.0
 11
79.87500000000014
 21
230.6105516132647
 31
0.0
  0
LINE
  5
2E4
330
1F
100
AcDbEntity
  8
0
  6
DASHED
 62
     7
100
AcDbLine
 10
80.4250000000001
 20
229.3105516132648
 30
0.0
 11
80.4250000000001
 21
230.6105516132647
 31
0.0
  0
LINE
  5
2E5
330
1F
100
AcDbEntity
  8
0
  6
DASHED
 62
     7
100
AcDbLine
 10
79.40500000000011
 20
229.3105516132648
 30
0.0
 11
79.40500000000011
 21
230.6105516132647
 31
0.0
  0
LINE
  5
2E6
330
1F
100
AcDbEntity
  8
0
  6
DASHED
 62
     7
100
AcDbLine
 10
79.87500000000014
 20
230.6105516132647
 30
0.0
 11
79.87500000000014
 21
229.3105516132648
 31
0.0
  0
LINE
  5
2E7
330
1F
100
AcDbEntity
  8
0
  6
DASHED
 62
     7
100
AcDbLine
 10
80.4250000000001
 20
230.6105516132647
 30
0.0
 11
80.89500000000012
 21
230.6105516132647
 31
0.0
  0
LINE
  5
2E8
330
1F
100
AcDbEntity
  8
0
  6
DASHED
 62
     7
100
AcDbLine
 10
79.20000000000007
 20
222.8105516132648
 30
0.0
 11
79.20000000000007
 21
222.7105516132648
 31
0.0
  0
LINE
  5
2E9
330
1F
100
AcDbEntity
  8
0
  6
DASHED
 62
     7
100
AcDbLine
 10
74.77500000000012
 20
229.3105516132648
 30
0.0
 11
75.32500000000007
 21
229.3105516132648
 31
0.0
  0
LINE
  5
2EA
330
1F
100
AcDbEntity
  8
0
  6
DASHED
 62
     7
100
AcDbLine
 10
75.7950000000001
 20
229.3105516132648
 30
0.0
 11
76.34500000000006
 21
229.3105516132648
 31
0.0
  0
LINE
  5
2EB
330
1F
100
AcDbEntity
  8
0
  6
DASHED
 62
     7
100
AcDbLine
 10
74.60000000000005
 20
224.2105516132648
 30
0.0
 11
74.60000000000005
 21
224.7105516132648
 31
0.0
  0
LINE
  5
2EC
330
1F
100
AcDbEntity
  8
0
  6
DASHED
 62
     7
100
AcDbLine
 10
74.60000000000005
 20
225.2105516132648
 30
0.0
 11
74.60000000000005
 21
226.1105516132647
 31
0.0
  0
LINE
  5
2ED
330
1F
100
AcDbEntity
  8
0
  6
DASHED
 62
     7
100
AcDbLine
 10
74.60000000000005
 20
224.7105516132648
 30
0.0
 11
74.60000000000005
 21
225.2105516132648
 31
0.0
  0
LINE
  5
2EE
330
1F
100
AcDbEntity
  8
0
  6
DASHED
 62
     7
100
AcDbLine
 10
76.34500000000006
 20
229.3105516132648
 30
0.0
 11
76.34500000000006
 21
230.6105516132647
 31
0.0
  0
LINE
  5
2EF
330
1F
100
AcDbEntity
  8
0
  6
DASHED
 62
     7
100
AcDbLine
 10
76.34500000000006
 20
230.6105516132647
 30
0.0
 11
76.81500000000008
 21
230.6105516132647
 31
0.0
  0
LINE
  5
2F0
330
1F
100
AcDbEntity
  8
0
  6
DASHED
 62
     7
100
AcDbLine
 10
76.81500000000008
 20
230.6105516132647
 30
0.0
 11
76.81500000000008
 21
229.3105516132648
 31
0.0
  0
LINE
  5
2F1
330
1F
100
AcDbEntity
  8
0
  6
DASHED
 62
     7
100
AcDbLine
 10
77.83500000000006
 20
230.6105516132647
 30
0.0
 11
77.83500000000006
 21
229.3105516132648
 31
0.0
  0
LINE
  5
2F2
330
1F
100
AcDbEntity
  8
0
  6
DASHED
 62
     7
100
AcDbLine
 10
77.3650000000001
 20
230.6105516132647
 30
0.0
 11
77.83500000000006
 21
230.6105516132647
 31
0.0
  0
LINE
  5
2F3
330
1F
100
AcDbEntity
  8
0
  6
DASHED
 62
     7
100
AcDbLine
 10
76.81500000000008
 20
229.3105516132648
 30
0.0
 11
77.3650000000001
 21
229.3105516132648
 31
0.0
  0
LINE
  5
2F4
330
1F
100
AcDbEntity
  8
0
  6
DASHED
 62
     7
100
AcDbLine
 10
76.00000000000009
 20
222.7105516132648
 30
0.0
 11
76.00000000000009
 21
222.6605516132648
 31
0.0
  0
LINE
  5
2F5
330
1F
100
AcDbEntity
  8
0
  6
DASHED
 62
     7
100
AcDbLine
 10
76.00000000000009
 20
222.8105516132648
 30
0.0
 11
76.00000000000009
 21
222.7105516132648
 31
0.0
  0
LINE
  5
2F6
330
1F
100
AcDbEntity
  8
0
  6
DASHED
 62
     7
100
AcDbLine
 10
77.83500000000006
 20
229.3105516132648
 30
0.0
 11
78.38500000000008
 21
229.3105516132648
 31
0.0
  0
LINE
  5
2F7
330
1F
100
AcDbEntity
  8
0
  6
DASHED
 62
     7
100
AcDbLine
 10
77.3650000000001
 20
229.3105516132648
 30
0.0
 11
77.3650000000001
 21
230.6105516132647
 31
0.0
  0
LINE
  5
2F8
330
1F
100
AcDbEntity
  8
1
  6
Continuous
 62
     4
100
AcDbLine
 10
67.42900704275748
 20
163.0497289057427
 30
0.0
 11
66.74114217844432
 21
163.4468678703201
 31
0.0
  0
LINE
  5
2F9
330
1F
100
AcDbEntity
  8
1
  6
Continuous
 62
     4
100
AcDbLine
 10
66.76709934313523
 20
162.6675763171871
 30
0.0
 11
67.42900704275748
 21
163.0497289057427
 31
0.0
  0
LINE
  5
2FA
330
1F
100
AcDbEntity
  8
1
  6
Continuous
 62
     4
100
AcDbLine
 10
68.56098522090379
 20
163.4468678703201
 30
0.0
 11
66.74114217844432
 21
163.4468678703201
 31
0.0
  0
LINE
  5
2FB
330
1F
100
AcDbEntity
  8
1
  6
Continuous
 62
     4
100
AcDbLine
 10
68.09091474238006
 20
162.6675763171871
 30
0.0
 11
66.76709934313523
 21
162.6675763171871
 31
0.0
  0
LINE
  5
2FC
330
1F
100
AcDbEntity
  8
1
  6
Continuous
 62
     4
100
AcDbLine
 10
66.90719866129491
 20
162.2629441645982
 30
0.0
 11
68.33618958057669
 21
162.2629441645982
 31
0.0
  0
LINE
  5
2FD
330
1F
100
AcDbEntity
  8
1
  6
Continuous
 62
     4
100
AcDbLine
 10
68.11427593563816
 20
161.8782938467052
 30
0.0
 11
67.12911230623332
 21
161.8782938467052
 31
0.0
  0
LINE
  5
2FE
330
1F
100
AcDbEntity
  8
1
  6
Continuous
 62
     4
100
AcDbLine
 10
68.33618958057669
 20
162.2629441645982
 30
0.0
 11
68.78253500088887
 21
163.0366095598062
 31
0.0
  0
LINE
  5
2FF
330
1F
100
AcDbEntity
  8
1
  6
Continuous
 62
     4
100
AcDbLine
 10
68.33618958057669
 20
163.8365136468872
 30
0.0
 11
68.06236257471052
 21
164.3111471237217
 31
0.0
  0
LINE
  5
300
330
1F
100
AcDbEntity
  8
1
  6
Continuous
 62
     4
100
AcDbLine
 10
66.91398990922029
 20
163.8365136468872
 30
0.0
 11
67.18781691508629
 21
164.3111471237217
 31
0.0
  0
LINE
  5
301
330
1F
100
AcDbEntity
  8
1
  6
Continuous
 62
     4
100
AcDbLine
 10
66.91398990922029
 20
163.8365136468872
 30
0.0
 11
68.33618958057669
 21
163.8365136468872
 31
0.0
  0
LINE
  5
302
330
1F
100
AcDbEntity
  8
1
  6
Continuous
 62
     4
100
AcDbLine
 10
67.63058856239901
 20
163.8365136468872
 30
0.0
 11
67.63058856239901
 21
164.3241121428852
 31
0.0
  0
LINE
  5
303
330
1F
100
AcDbEntity
  8
1
  6
Continuous
 62
     4
100
AcDbLine
 10
69.09571001095487
 20
163.0497289057427
 30
0.0
 11
67.66755074746551
 21
160.5742528490277
 31
0.0
  0
LINE
  5
304
330
1F
100
AcDbEntity
  8
1
  6
Continuous
 62
     4
100
AcDbLine
 10
67.66755074746551
 20
165.5252049624577
 30
0.0
 11
69.09571001095487
 21
163.0497289057427
 31
0.0
  0
LINE
  5
305
330
1F
100
AcDbEntity
  8
1
  6
Continuous
 62
     4
100
AcDbLine
 10
66.15446947884222
 20
163.0497289057427
 30
0.0
 11
67.58262874233152
 21
165.5252049624577
 31
0.0
  0
LINE
  5
306
330
1F
100
AcDbEntity
  8
1
  6
Continuous
 62
     4
100
AcDbLine
 10
67.58262874233152
 20
160.5742528490277
 30
0.0
 11
66.15446947884222
 21
163.0497289057427
 31
0.0
  0
ARC
  5
307
330
1F
100
AcDbEntity
  8
0
  6
Continuous
 62
     7
100
AcDbCircle
 10
72.85000000000015
 20
171.7997289057427
 30
0.0
 40
0.5
100
AcDbArc
 50
270.0
 51
0.0
  0
ARC
  5
308
330
1F
100
AcDbEntity
  8
0
  6
Continuous
 62
     7
100
AcDbCircle
 10
67.65000000000012
 20
171.7997289057427
 30
0.0
 40
0.5
100
AcDbArc
 50
180.0
 51
270.0000000000049
  0
ARC
  5
309
330
1F
100
AcDbEntity
  8
0
  6
Continuous
 62
     7
100
AcDbCircle
 10
82.35000000000015
 20
171.7997289057427
 30
0.0
 40
0.5
100
AcDbArc
 50
180.0
 51
270.0
  0
ARC
  5
30A
330
1F
100
AcDbEntity
  8
0
  6
Continuous
 62
     7
100
AcDbCircle
 10
87.55000000000014
 20
171.7997289057427
 30
0.0
 40
0.5
100
AcDbArc
 50
270.0
 51
0.0
  0
ARC
  5
30B
102
{ACAD_REACTORS
330
3CE
102
}
330
1F
100
AcDbEntity
  8
1
  6
Continuous
 62
     7
100
AcDbCircle
 10
195.6763006887428
 20
10.84673060906323
 30
0.0
 40
0.3333333333333172
100
AcDbArc
 50
299.9816393688334
 51
119.9816393688365
  0
ARC
  5
30C
102
{ACAD_REACTORS
330
3CE
102
}
330
1F
100
AcDbEntity
  8
1
  6
Continuous
 62
     7
100
AcDbCircle
 10
195.6763006887428
 20
12.5
 30
0.0
 40
0.3333333333333695
100
AcDbArc
 50
270.0
 51
90.0
  0
ARC
  5
30D
102
{ACAD_REACTORS
330
3CE
102
}
330
1F
100
AcDbEntity
  8
1
  6
Continuous
 62
     7
100
AcDbCircle
 10
195.6763006887428
 20
14.15326939093666
 30
0.0
 40
0.3333333333333613
100
AcDbArc
 50
240.018360631154
 51
60.01836063115638
  0
ARC
  5
30E
102
{ACAD_REACTORS
330
3CF
102
}
330
1F
100
AcDbEntity
  8
1
  6
Continuous
 62
     7
100
AcDbCircle
 10
187.6763006887428
 20
10.84673060906323
 30
0.0
 40
0.3333333333333997
100
AcDbArc
 50
180.0
 51
0.0
  0
ARC
  5
30F
102
{ACAD_REACTORS
330
3CF
102
}
330
1F
100
AcDbEntity
  8
1
  6
Continuous
 62
     7
100
AcDbCircle
 10
187.6763006887428
 20
14.15326939093666
 30
0.0
 40
0.3333333333333144
100
AcDbArc
 50
0.0
 51
180.0
  0
ARC
  5
310
102
{ACAD_REACTORS
330
3D0
102
}
330
1F
100
AcDbEntity
  8
1
  6
Continuous
 62
     7
100
AcDbCircle
 10
191.3429673554094
 20
8.7313459936787
 30
0.0
 40
0.3333333333333567
100
AcDbArc
 50
240.0183606311536
 51
60.01836063113668
  0
ARC
  5
311
102
{ACAD_REACTORS
330
3D0
102
}
330
1F
100
AcDbEntity
  8
1
  6
Continuous
 62
     7
100
AcDbCircle
 10
189.0096340220761
 20
14.92250016016737
 30
0.0
 40
0.333333333333286
100
AcDbArc
 50
0.0
 51
180.0
  0
ARC
  5
312
102
{ACAD_REACTORS
330
3CD
102
}
330
1F
100
AcDbEntity
  8
1
  6
Continuous
 62
     7
100
AcDbCircle
 10
193.0780011429341
 20
15.73121731203457
 30
0.0
 40
0.2649662124752865
100
AcDbArc
 50
0.0
 51
149.9999999999716
  0
ARC
  5
313
102
{ACAD_REACTORS
330
3CD
102
}
330
1F
100
AcDbEntity
  8
1
  6
Continuous
 62
     7
100
AcDbCircle
 10
193.0096340220762
 20
9.3082690706018
 30
0.0
 40
0.3333333333333997
100
AcDbArc
 50
180.0
 51
0.0
  0
ARC
  5
314
102
{ACAD_REACTORS
330
3CD
102
}
330
1F
100
AcDbEntity
  8
1
  6
Continuous
 62
     7
100
AcDbCircle
 10
190.3429673554094
 20
10.84758507263291
 30
0.0
 40
0.333333333333286
100
AcDbArc
 50
180.0
 51
0.0
  0
ARC
  5
315
102
{ACAD_REACTORS
330
3CD
102
}
330
1F
100
AcDbEntity
  8
1
  6
Continuous
 62
     7
100
AcDbCircle
 10
190.2746002345514
 20
15.73121731203457
 30
0.0
 40
0.2649662124752854
100
AcDbArc
 50
30.00000000001921
 51
180.0
  0
ARC
  5
316
330
1F
100
AcDbEntity
  8
0
  6
Continuous
 62
     7
100
AcDbCircle
 10
79.35000000000016
 20
84.95935674649486
 30
0.0
 40
0.5
100
AcDbArc
 50
270.0
 51
0.0
  0
ARC
  5
317
330
1F
100
AcDbEntity
  8
0
  6
Continuous
 62
     7
100
AcDbCircle
 10
81.85000000000016
 20
84.95935674649486
 30
0.0
 40
0.5
100
AcDbArc
 50
180.0
 51
270.0
  0
ARC
  5
318
330
1F
100
AcDbEntity
  8
0
  6
Continuous
 62
     7
100
AcDbCircle
 10
81.85000000000016
 20
85.65935674649462
 30
0.0
 40
0.5
100
AcDbArc
 50
90.0
 51
180.0
  0
ARC
  5
319
330
1F
100
AcDbEntity
  8
0
  6
Continuous
 62
     7
100
AcDbCircle
 10
80.85000000000011
 20
81.45935674649463
 30
0.0
 40
1.300000000000097
100
AcDbArc
 50
90.0000000000025
 51
270.0
  0
ARC
  5
31A
330
1F
100
AcDbEntity
  8
0
  6
Continuous
 62
     7
100
AcDbCircle
 10
90.3000000000001
 20
86.90935674649462
 30
0.0
 40
0.5
100
AcDbArc
 50
0.0
 51
90.0
  0
ARC
  5
31B
330
1F
100
AcDbEntity
  8
0
  6
Continuous
 62
     7
100
AcDbCircle
 10
85.10000000000016
 20
86.90935674649462
 30
0.0
 40
0.5
100
AcDbArc
 50
90.0
 51
180.0
  0
ARC
  5
31C
330
1F
100
AcDbEntity
  8
0
  6
Continuous
 62
     7
100
AcDbCircle
 10
84.10000000000016
 20
86.65935674649462
 30
0.0
 40
0.5
100
AcDbArc
 50
270.0
 51
0.0
  0
ARC
  5
31D
330
1F
100
AcDbEntity
  8
0
  6
Continuous
 62
     7
100
AcDbCircle
 10
90.30000000000015
 20
102.4593567464948
 30
0.0
 40
0.5
100
AcDbArc
 50
0.0
 51
90.0
  0
ARC
  5
31E
330
1F
100
AcDbEntity
  8
0
  6
Continuous
 62
     7
100
AcDbCircle
 10
65.90000000000018
 20
102.4593567464948
 30
0.0
 40
0.5
100
AcDbArc
 50
90.0
 51
180.0
  0
ARC
  5
31F
330
1F
100
AcDbEntity
  8
0
  6
Continuous
 62
     7
100
AcDbCircle
 10
92.50000000000014
 20
102.8036169695788
 30
0.0
 40
0.1999999999999886
100
AcDbArc
 50
180.0
 51
294.9999999999918
  0
ARC
  5
320
330
1F
100
AcDbEntity
  8
0
  6
Continuous
 62
     7
100
AcDbCircle
 10
93.00000000000014
 20
102.5954196310713
 30
0.0
 40
0.1999999999999886
100
AcDbArc
 50
0.0
 51
115.0000000000021
  0
ARC
  5
321
330
1F
100
AcDbEntity
  8
0
  6
Continuous
 62
     7
100
AcDbCircle
 10
93.00000000000014
 20
101.9799158835421
 30
0.0
 40
0.2000000000000194
100
AcDbArc
 50
282.4999999999965
 51
0.0
  0
ARC
  5
322
330
1F
100
AcDbEntity
  8
0
  6
Continuous
 62
     7
100
AcDbCircle
 10
92.50000000000014
 20
100.1150965234108
 30
0.0
 40
0.1999999999999692
100
AcDbArc
 50
64.99999999999618
 51
180.0
  0
ARC
  5
323
330
1F
100
AcDbEntity
  8
0
  6
Continuous
 62
     7
100
AcDbCircle
 10
93.00000000000014
 20
100.3232938619183
 30
0.0
 40
0.1999999999999692
100
AcDbArc
 50
244.9999999999962
 51
0.0
  0
ARC
  5
324
330
1F
100
AcDbEntity
  8
0
  6
Continuous
 62
     7
100
AcDbCircle
 10
93.00000000000014
 20
100.9387976094475
 30
0.0
 40
0.1999999999999886
100
AcDbArc
 50
0.0
 51
77.50000000000263
  0
ARC
  5
325
330
1F
100
AcDbEntity
  8
0
  6
Continuous
 62
     7
100
AcDbCircle
 10
92.50000000000014
 20
101.4593567464948
 30
0.0
 40
0.2000000000000055
100
AcDbArc
 50
102.4999999999974
 51
257.5000000000035
  0
ARC
  5
326
330
1F
100
AcDbEntity
  8
0
  6
Continuous
 62
     7
100
AcDbCircle
 10
90.3000000000001
 20
96.00935674649465
 30
0.0
 40
0.5
100
AcDbArc
 50
270.0
 51
359.9999999999968
  0
ARC
  5
327
330
1F
100
AcDbEntity
  8
0
  6
Continuous
 62
     7
100
AcDbCircle
 10
85.10000000000016
 20
96.00935674649465
 30
0.0
 40
0.5
100
AcDbArc
 50
180.0
 51
270.0
  0
ARC
  5
328
330
1F
100
AcDbEntity
  8
0
  6
Continuous
 62
     7
100
AcDbCircle
 10
93.00000000000014
 20
82.5954196310713
 30
0.0
 40
0.2000000000000455
100
AcDbArc
 50
0.0
 51
115.0000000000021
  0
ARC
  5
329
330
1F
100
AcDbEntity
  8
0
  6
Continuous
 62
     7
100
AcDbCircle
 10
93.00000000000014
 20
81.97991588354206
 30
0.0
 40
0.2000000000000178
100
AcDbArc
 50
282.5000000000132
 51
0.0
  0
ARC
  5
32A
330
1F
100
AcDbEntity
  8
0
  6
Continuous
 62
     7
100
AcDbCircle
 10
93.00000000000014
 20
80.32329386191829
 30
0.0
 40
0.1999999999999838
100
AcDbArc
 50
245.0000000000161
 51
0.0
  0
ARC
  5
32B
330
1F
100
AcDbEntity
  8
0
  6
Continuous
 62
     7
100
AcDbCircle
 10
93.00000000000014
 20
80.93879760944752
 30
0.0
 40
0.2000000000000455
100
AcDbArc
 50
0.0
 51
77.49999999998671
  0
ARC
  5
32C
330
1F
100
AcDbEntity
  8
0
  6
Continuous
 62
     7
100
AcDbCircle
 10
92.50000000000014
 20
81.4593567464948
 30
0.0
 40
0.1999999999999777
100
AcDbArc
 50
102.4999999999991
 51
257.5000000000026
  0
ARC
  5
32D
330
1F
100
AcDbEntity
  8
0
  6
Continuous
 62
     7
100
AcDbCircle
 10
92.50000000000014
 20
80.1150965234108
 30
0.0
 40
0.2000000000000061
100
AcDbArc
 50
64.99999999998315
 51
180.0
  0
ARC
  5
32E
330
1F
100
AcDbEntity
  8
0
  6
Continuous
 62
     7
100
AcDbCircle
 10
92.50000000000014
 20
82.80361696957878
 30
0.0
 40
0.1999999999999886
100
AcDbArc
 50
180.0
 51
294.9999999999986
  0
ARC
  5
32F
330
1F
100
AcDbEntity
  8
0
  6
Continuous
 62
     7
100
AcDbCircle
 10
90.30000000000015
 20
84.95935674649486
 30
0.0
 40
0.5
100
AcDbArc
 50
270.0
 51
0.0
  0
ARC
  5
330
330
1F
100
AcDbEntity
  8
0
  6
Continuous
 62
     7
100
AcDbCircle
 10
80.85000000000011
 20
81.45935674649463
 30
0.0
 40
1.300000000000068
100
AcDbArc
 50
270.0
 51
90.0000000000025
  0
ARC
  5
331
330
1F
100
AcDbEntity
  8
0
  6
Continuous
 62
     7
100
AcDbCircle
 10
87.35000000000011
 20
81.45935674649463
 30
0.0
 40
1.300000000000125
100
AcDbArc
 50
90.0000000000025
 51
270.0
  0
ARC
  5
332
330
1F
100
AcDbEntity
  8
0
  6
Continuous
 62
     7
100
AcDbCircle
 10
80.25000000000014
 20
102.4593567464949
 30
0.0
 40
0.5
100
AcDbArc
 50
0.0
 51
90.0
  0
ARC
  5
333
330
1F
100
AcDbEntity
  8
0
  6
Continuous
 62
     7
100
AcDbCircle
 10
74.95000000000013
 20
102.4593567464949
 30
0.0
 40
0.5
100
AcDbArc
 50
90.0
 51
180.0
  0
ARC
  5
334
330
1F
100
AcDbEntity
  8
0
  6
Continuous
 62
     7
100
AcDbCircle
 10
72.45000000000013
 20
102.4593567464949
 30
0.0
 40
0.5
100
AcDbArc
 50
0.0
 51
90.0
  0
ARC
  5
335
330
1F
100
AcDbEntity
  8
0
  6
Continuous
 62
     7
100
AcDbCircle
 10
82.75000000000014
 20
102.4593567464949
 30
0.0
 40
0.5
100
AcDbArc
 50
90.0
 51
180.0
  0
ARC
  5
336
330
1F
100
AcDbEntity
  8
0
  6
Continuous
 62
     7
100
AcDbCircle
 10
63.19013952505438
 20
103.0093567464948
 30
0.0
 40
0.3000000000000091
100
AcDbArc
 50
120.668579031356
 51
165.2693233973588
  0
ARC
  5
337
330
1F
100
AcDbEntity
  8
0
  6
Continuous
 62
     7
100
AcDbCircle
 10
62.9942363139717
 20
103.3593567464948
 30
0.0
 40
0.1000000000000118
100
AcDbArc
 50
312.2368356759543
 51
90.0
  0
ARC
  5
338
330
1F
100
AcDbEntity
  8
0
  6
Continuous
 62
     7
100
AcDbCircle
 10
63.19013952505438
 20
103.0093567464948
 30
0.0
 40
0.2999999999999928
100
AcDbArc
 50
194.7306766026228
 51
294.9999999999889
  0
ARC
  5
339
330
1F
100
AcDbEntity
  8
0
  6
Continuous
 62
     7
100
AcDbCircle
 10
62.9942363139717
 20
99.55935674649481
 30
0.0
 40
0.0999999999999943
100
AcDbArc
 50
270.0
 51
47.76316432406211
  0
ARC
  5
33A
330
1F
100
AcDbEntity
  8
0
  6
Continuous
 62
     7
100
AcDbCircle
 10
63.19013952505438
 20
99.90935674649481
 30
0.0
 40
0.2999999999999964
100
AcDbArc
 50
194.7306766026255
 51
239.3314209686413
  0
ARC
  5
33B
330
1F
100
AcDbEntity
  8
0
  6
Continuous
 62
     7
100
AcDbCircle
 10
64.90000000000012
 20
97.4593567464948
 30
0.0
 40
0.5
100
AcDbArc
 50
90.0
 51
180.0
  0
ARC
  5
33C
330
1F
100
AcDbEntity
  8
0
  6
Continuous
 62
     7
100
AcDbCircle
 10
63.19013952505438
 20
99.90935674649481
 30
0.0
 40
0.2999999999999748
100
AcDbArc
 50
65.00000000001003
 51
165.2693233973693
  0
ARC
  5
33D
330
1F
100
AcDbEntity
  8
0
  6
Continuous
 62
     7
100
AcDbCircle
 10
64.90000000000012
 20
98.4593567464948
 30
0.0
 40
0.5
100
AcDbArc
 50
270.0
 51
0.0
  0
ARC
  5
33E
330
1F
100
AcDbEntity
  8
0
  6
Continuous
 62
     7
100
AcDbCircle
 10
82.75000000000014
 20
97.25935674649465
 30
0.0
 40
0.5
100
AcDbArc
 50
180.0
 51
270.0
  0
ARC
  5
33F
330
1F
100
AcDbEntity
  8
0
  6
Continuous
 62
     7
100
AcDbCircle
 10
84.10000000000016
 20
96.25935674649465
 30
0.0
 40
0.5
100
AcDbArc
 50
0.0
 51
90.0
  0
ARC
  5
340
330
1F
100
AcDbEntity
  8
0
  6
Continuous
 62
     7
100
AcDbCircle
 10
63.19013952505443
 20
79.90935674649481
 30
0.0
 40
0.2999999999999796
100
AcDbArc
 50
65.00000000002093
 51
165.2693233973822
  0
ARC
  5
341
330
1F
100
AcDbEntity
  8
0
  6
Continuous
 62
     7
100
AcDbCircle
 10
63.19013952505443
 20
83.00935674649483
 30
0.0
 40
0.30000000000001
100
AcDbArc
 50
120.6685790313669
 51
165.2693233973717
  0
ARC
  5
342
330
1F
100
AcDbEntity
  8
0
  6
Continuous
 62
     7
100
AcDbCircle
 10
63.19013952505443
 20
83.00935674649483
 30
0.0
 40
0.3000000000000372
100
AcDbArc
 50
194.7306766026178
 51
294.9999999999902
  0
ARC
  5
343
330
1F
100
AcDbEntity
  8
0
  6
Continuous
 62
     7
100
AcDbCircle
 10
62.99423631397175
 20
83.35935674649483
 30
0.0
 40
0.10000000000001
100
AcDbArc
 50
312.2368356759168
 51
90.0
  0
ARC
  5
344
330
1F
100
AcDbEntity
  8
0
  6
Continuous
 62
     7
100
AcDbCircle
 10
63.19013952505443
 20
79.90935674649481
 30
0.0
 40
0.3000000000000517
100
AcDbArc
 50
194.7306766026283
 51
239.3314209686332
  0
ARC
  5
345
330
1F
100
AcDbEntity
  8
0
  6
Continuous
 62
     7
100
AcDbCircle
 10
62.99423631397175
 20
79.55935674649481
 30
0.0
 40
0.0999999999999943
100
AcDbArc
 50
270.0
 51
47.76316432408321
  0
ARC
  5
346
330
1F
100
AcDbEntity
  8
0
  6
Continuous
 62
     7
100
AcDbCircle
 10
64.90000000000018
 20
84.95935674649483
 30
0.0
 40
0.5
100
AcDbArc
 50
180.0
 51
270.0
  0
ARC
  5
347
330
1F
100
AcDbEntity
  8
0
  6
Continuous
 62
     7
100
AcDbCircle
 10
70.10000000000016
 20
86.90935674649462
 30
0.0
 40
0.5
100
AcDbArc
 50
0.0
 51
90.0
  0
ARC
  5
348
330
1F
100
AcDbEntity
  8
0
  6
Continuous
 62
     7
100
AcDbCircle
 10
71.10000000000016
 20
86.65935674649462
 30
0.0
 40
0.5
100
AcDbArc
 50
180.0
 51
270.0
  0
ARC
  5
349
330
1F
100
AcDbEntity
  8
0
  6
Continuous
 62
     7
100
AcDbCircle
 10
64.90000000000012
 20
86.90935674649462
 30
0.0
 40
0.5
100
AcDbArc
 50
90.0
 51
180.0
  0
ARC
  5
34A
330
1F
100
AcDbEntity
  8
0
  6
Continuous
 62
     7
100
AcDbCircle
 10
64.90000000000012
 20
96.00935674649465
 30
0.0
 40
0.5
100
AcDbArc
 50
179.9999999999984
 51
270.0
  0
ARC
  5
34B
330
1F
100
AcDbEntity
  8
0
  6
Continuous
 62
     7
100
AcDbCircle
 10
71.10000000000016
 20
96.25935674649465
 30
0.0
 40
0.5
100
AcDbArc
 50
90.0
 51
180.0
  0
ARC
  5
34C
330
1F
100
AcDbEntity
  8
0
  6
Continuous
 62
     7
100
AcDbCircle
 10
70.10000000000016
 20
96.00935674649465
 30
0.0
 40
0.5
100
AcDbArc
 50
270.0
 51
0.0
  0
ARC
  5
34D
330
1F
100
AcDbEntity
  8
0
  6
Continuous
 62
     7
100
AcDbCircle
 10
73.35000000000016
 20
85.65935674649462
 30
0.0
 40
0.5
100
AcDbArc
 50
0.0
 51
90.0
  0
ARC
  5
34E
330
1F
100
AcDbEntity
  8
0
  6
Continuous
 62
     7
100
AcDbCircle
 10
75.85000000000011
 20
84.95935674649486
 30
0.0
 40
0.5
100
AcDbArc
 50
180.0
 51
270.0
  0
ARC
  5
34F
330
1F
100
AcDbEntity
  8
0
  6
Continuous
 62
     7
100
AcDbCircle
 10
73.35000000000016
 20
84.95935674649486
 30
0.0
 40
0.5
100
AcDbArc
 50
270.0
 51
0.0
  0
ARC
  5
350
330
1F
100
AcDbEntity
  8
0
  6
Continuous
 62
     7
100
AcDbCircle
 10
72.45000000000013
 20
97.25935674649465
 30
0.0
 40
0.5
100
AcDbArc
 50
270.0
 51
0.0
  0
ARC
  5
351
330
1F
100
AcDbEntity
  8
0
  6
DASHED
 62
     7
100
AcDbCircle
 10
79.35000000000005
 20
93.45935674649469
 30
0.0
 40
1.0
100
AcDbArc
 50
0.0
 51
90.0
  0
ARC
  5
352
330
1F
100
AcDbEntity
  8
0
  6
DASHED
 62
     7
100
AcDbCircle
 10
75.85000000000005
 20
93.45935674649469
 30
0.0
 40
0.5
100
AcDbArc
 50
90.0
 51
180.0
  0
ARC
  5
353
330
1F
100
AcDbEntity
  8
0
  6
DASHED
 62
     7
100
AcDbCircle
 10
75.85000000000005
 20
90.45935674649469
 30
0.0
 40
0.5
100
AcDbArc
 50
180.0
 51
270.0
  0
ARC
  5
354
330
1F
100
AcDbEntity
  8
0
  6
DASHED
 62
     7
100
AcDbCircle
 10
79.35000000000005
 20
93.45935674649469
 30
0.0
 40
0.5
100
AcDbArc
 50
0.0
 51
90.0
  0
ARC
  5
355
330
1F
100
AcDbEntity
  8
0
  6
DASHED
 62
     7
100
AcDbCircle
 10
79.35000000000005
 20
90.45935674649469
 30
0.0
 40
0.5
100
AcDbArc
 50
270.0
 51
0.0
  0
ARC
  5
356
330
1F
100
AcDbEntity
  8
0
  6
DASHED
 62
     7
100
AcDbCircle
 10
79.35000000000005
 20
90.45935674649469
 30
0.0
 40
1.0
100
AcDbArc
 50
270.0
 51
0.0
  0
ARC
  5
357
330
1F
100
AcDbEntity
  8
0
  6
DASHED
 62
     7
100
AcDbCircle
 10
75.85000000000005
 20
90.45935674649469
 30
0.0
 40
1.0
100
AcDbArc
 50
180.0
 51
270.0
  0
ARC
  5
358
330
1F
100
AcDbEntity
  8
0
  6
DASHED
 62
     7
100
AcDbCircle
 10
75.85000000000005
 20
93.45935674649469
 30
0.0
 40
1.0
100
AcDbArc
 50
90.0
 51
180.0
  0
ARC
  5
359
330
1F
100
AcDbEntity
  8
0
  6
Continuous
 62
     7
100
AcDbCircle
 10
87.35000000000011
 20
81.45935674649463
 30
0.0
 40
1.300000000000068
100
AcDbArc
 50
270.0
 51
90.0000000000025
  0
ARC
  5
35A
330
1F
100
AcDbEntity
  8
0
  6
Continuous
 62
     7
100
AcDbCircle
 10
89.8000000000001
 20
215.5105516132647
 30
0.0
 40
0.5
100
AcDbArc
 50
90.0
 51
180.0
  0
ARC
  5
35B
330
1F
100
AcDbEntity
  8
0
  6
Continuous
 62
     7
100
AcDbCircle
 10
86.65000000000012
 20
215.5105516132647
 30
0.0
 40
1.0
100
AcDbArc
 50
270.0
 51
0.0
  0
ARC
  5
35C
330
1F
100
AcDbEntity
  8
0
  6
Continuous
 62
     7
100
AcDbCircle
 10
88.65000000000012
 20
216.5105516132647
 30
0.0
 40
1.0
100
AcDbArc
 50
90.0
 51
180.0
  0
ARC
  5
35D
330
1F
100
AcDbEntity
  8
0
  6
Continuous
 62
     7
100
AcDbCircle
 10
88.30000000000004
 20
214.0105516132647
 30
0.0
 40
1.0
100
AcDbArc
 50
270.0
 51
0.0
  0
ARC
  5
35E
330
1F
100
AcDbEntity
  8
0
  6
Continuous
 62
     7
100
AcDbCircle
 10
91.3000000000001
 20
217.0105516132647
 30
0.0
 40
1.0
100
AcDbArc
 50
270.0
 51
0.0
  0
ARC
  5
35F
330
1F
100
AcDbEntity
  8
0
  6
Continuous
 62
     7
100
AcDbCircle
 10
92.50000000000009
 20
216.6662913901806
 30
0.0
 40
0.2000000000000851
100
AcDbArc
 50
65.00000000001167
 51
180.0
  0
ARC
  5
360
330
1F
100
AcDbEntity
  8
0
  6
Continuous
 62
     7
100
AcDbCircle
 10
93.00000000000009
 20
216.8744887286881
 30
0.0
 40
0.1999999999999821
100
AcDbArc
 50
244.9999999999979
 51
313.3392229868103
  0
ARC
  5
361
330
1F
100
AcDbEntity
  8
0
  6
Continuous
 62
     7
100
AcDbCircle
 10
65.40000000000012
 20
218.5105516132647
 30
0.0
 40
1.0
100
AcDbArc
 50
180.0
 51
270.0
  0
ARC
  5
362
330
1F
100
AcDbEntity
  8
0
  6
Continuous
 62
     7
100
AcDbCircle
 10
89.80000000000021
 20
218.5105516132647
 30
0.0
 40
1.0
100
AcDbArc
 50
270.0
 51
0.0
  0
ARC
  5
363
330
1F
100
AcDbEntity
  8
0
  6
Continuous
 62
     7
100
AcDbCircle
 10
93.00000000000009
 20
216.8744887286881
 30
0.0
 40
0.1999999999999515
100
AcDbArc
 50
313.3392229868103
 51
0.0
  0
ARC
  5
364
330
1F
100
AcDbEntity
  8
0
  6
Continuous
 62
     7
100
AcDbCircle
 10
66.90000000000006
 20
214.0105516132647
 30
0.0
 40
1.0
100
AcDbArc
 50
180.0
 51
270.0
  0
ARC
  5
365
330
1F
100
AcDbEntity
  8
0
  6
Continuous
 62
     7
100
AcDbCircle
 10
65.40000000000006
 20
215.5105516132647
 30
0.0
 40
0.5
100
AcDbArc
 50
0.0
 51
90.0
  0
ARC
  5
366
330
1F
100
AcDbEntity
  8
0
  6
Continuous
 62
     7
100
AcDbCircle
 10
66.55000000000015
 20
216.5105516132647
 30
0.0
 40
1.0
100
AcDbArc
 50
0.0
 51
90.0
  0
ARC
  5
367
330
1F
100
AcDbEntity
  8
0
  6
Continuous
 62
     7
100
AcDbCircle
 10
68.55000000000015
 20
215.5105516132647
 30
0.0
 40
1.0
100
AcDbArc
 50
180.0
 51
270.0
  0
ARC
  5
368
330
1F
100
AcDbEntity
  8
0
  6
Continuous
 62
     7
100
AcDbCircle
 10
63.90000000000012
 20
217.0105516132647
 30
0.0
 40
1.0
100
AcDbArc
 50
180.0
 51
270.0
  0
ARC
  5
369
330
1F
100
AcDbEntity
  8
0
  6
Continuous
 62
     7
100
AcDbCircle
 10
93.00000000000009
 20
218.5311107503119
 30
0.0
 40
0.2000000000000332
100
AcDbArc
 50
282.4999999999956
 51
0.0
  0
ARC
  5
36A
330
1F
100
AcDbEntity
  8
0
  6
Continuous
 62
     7
100
AcDbCircle
 10
92.50000000000009
 20
218.0105516132646
 30
0.0
 40
0.2000000000000055
100
AcDbArc
 50
102.4999999999974
 51
180.0
  0
ARC
  5
36B
330
1F
100
AcDbEntity
  8
0
  6
Continuous
 62
     7
100
AcDbCircle
 10
92.50000000000009
 20
218.0105516132646
 30
0.0
 40
0.1999999999999886
100
AcDbArc
 50
180.0
 51
257.5000000000026
  0
ARC
  5
36C
330
1F
100
AcDbEntity
  8
0
  6
Continuous
 62
     7
100
AcDbCircle
 10
93.00000000000009
 20
217.4899924762173
 30
0.0
 40
0.1999999999999886
100
AcDbArc
 50
0.0
 51
77.50000000000263
  0
ARC
  5
36D
330
1F
100
AcDbEntity
  8
0
  6
Continuous
 62
     7
100
AcDbCircle
 10
93.00000000000009
 20
219.1466144978411
 30
0.0
 40
0.1999999999999886
100
AcDbArc
 50
0.0
 51
46.66077701320642
  0
ARC
  5
36E
330
1F
100
AcDbEntity
  8
0
  6
Continuous
 62
     7
100
AcDbCircle
 10
93.00000000000009
 20
219.1466144978411
 30
0.0
 40
0.2000000000000136
100
AcDbArc
 50
46.66077701320642
 51
114.9999999999918
  0
ARC
  5
36F
330
1F
100
AcDbEntity
  8
0
  6
Continuous
 62
     7
100
AcDbCircle
 10
93.00000000000009
 20
239.1466144978411
 30
0.0
 40
0.2000000000000526
100
AcDbArc
 50
46.66077701319458
 51
114.9999999999918
  0
ARC
  5
370
330
1F
100
AcDbEntity
  8
0
  6
Continuous
 62
     7
100
AcDbCircle
 10
93.00000000000009
 20
238.5311107503119
 30
0.0
 40
0.2000000000000455
100
AcDbArc
 50
282.5000000000115
 51
0.0
  0
ARC
  5
371
330
1F
100
AcDbEntity
  8
0
  6
Continuous
 62
     7
100
AcDbCircle
 10
93.00000000000009
 20
236.8744887286881
 30
0.0
 40
0.1999999999999905
100
AcDbArc
 50
313.3392229868222
 51
0.0
  0
ARC
  5
372
330
1F
100
AcDbEntity
  8
0
  6
Continuous
 62
     7
100
AcDbCircle
 10
93.00000000000009
 20
237.4899924762173
 30
0.0
 40
0.2000000000000455
100
AcDbArc
 50
0.0
 51
77.49999999998671
  0
ARC
  5
373
330
1F
100
AcDbEntity
  8
0
  6
Continuous
 62
     7
100
AcDbCircle
 10
93.00000000000009
 20
239.1466144978411
 30
0.0
 40
0.2000000000000455
100
AcDbArc
 50
0.0
 51
46.66077701319458
  0
ARC
  5
374
330
1F
100
AcDbEntity
  8
0
  6
Continuous
 62
     7
100
AcDbCircle
 10
92.50000000000009
 20
238.0105516132646
 30
0.0
 40
0.1999999999999886
100
AcDbArc
 50
180.0
 51
257.5000000000026
  0
ARC
  5
375
330
1F
100
AcDbEntity
  8
0
  6
Continuous
 62
     7
100
AcDbCircle
 10
93.00000000000009
 20
236.8744887286881
 30
0.0
 40
0.1999999999999821
100
AcDbArc
 50
244.9999999999979
 51
313.3392229868222
  0
ARC
  5
376
330
1F
100
AcDbEntity
  8
0
  6
Continuous
 62
     7
100
AcDbCircle
 10
92.50000000000009
 20
238.0105516132646
 30
0.0
 40
0.2000000000000055
100
AcDbArc
 50
102.4999999999974
 51
180.0
  0
ARC
  5
377
330
1F
100
AcDbEntity
  8
0
  6
Continuous
 62
     7
100
AcDbCircle
 10
92.50000000000009
 20
236.6662913901806
 30
0.0
 40
0.2000000000000851
100
AcDbArc
 50
65.00000000001167
 51
180.0
  0
ARC
  5
378
330
1F
100
AcDbEntity
  8
0
  6
Continuous
 62
     7
100
AcDbCircle
 10
92.50000000000009
 20
239.3548118363486
 30
0.0
 40
0.1999999999999886
100
AcDbArc
 50
180.0
 51
295.0000000000021
  0
ARC
  5
379
330
1F
100
AcDbEntity
  8
0
  6
Continuous
 62
     7
100
AcDbCircle
 10
92.50000000000009
 20
219.3548118363486
 30
0.0
 40
0.1999999999999886
100
AcDbArc
 50
180.0
 51
295.0000000000021
  0
ARC
  5
37A
330
1F
100
AcDbEntity
  8
0
  6
Continuous
 62
     7
100
AcDbCircle
 10
87.80000000000015
 20
238.5105516132647
 30
0.0
 40
3.0
100
AcDbArc
 50
0.0
 51
90.0
  0
ARC
  5
37B
330
1F
100
AcDbEntity
  8
0
  6
Continuous
 62
     7
100
AcDbCircle
 10
67.40000000000012
 20
238.5105516132642
 30
0.0
 40
3.0
100
AcDbArc
 50
90.0
 51
180.0
  0
CIRCLE
  5
37C
330
1F
100
AcDbEntity
  8
0
  6
Continuous
 62
     7
100
AcDbCircle
 10
80.85000000000011
 20
81.45935674649463
 30
0.0
 40
1.625
  0
CIRCLE
  5
37D
330
1F
100
AcDbEntity
  8
0
  6
Continuous
 62
     7
100
AcDbCircle
 10
87.35000000000011
 20
81.45935674649463
 30
0.0
 40
1.949999999999989
  0
CIRCLE
  5
37E
330
1F
100
AcDbEntity
  8
0
  6
Continuous
 62
     7
100
AcDbCircle
 10
87.35000000000011
 20
81.45935674649463
 30
0.0
 40
1.625
  0
CIRCLE
  5
37F
330
1F
100
AcDbEntity
  8
0
  6
Continuous
 62
     7
100
AcDbCircle
 10
67.85000000000011
 20
81.45935674649463
 30
0.0
 40
1.950000000000017
  0
CIRCLE
  5
380
330
1F
100
AcDbEntity
  8
0
  6
Continuous
 62
     7
100
AcDbCircle
 10
67.85000000000011
 20
81.45935674649463
 30
0.0
 40
1.30000000000004
  0
CIRCLE
  5
381
330
1F
100
AcDbEntity
  8
0
  6
Continuous
 62
     7
100
AcDbCircle
 10
67.85000000000011
 20
81.45935674649463
 30
0.0
 40
1.625
  0
CIRCLE
  5
382
330
1F
100
AcDbEntity
  8
0
  6
Continuous
 62
     7
100
AcDbCircle
 10
74.35000000000011
 20
81.45935674649466
 30
0.0
 40
1.300000000000068
  0
CIRCLE
  5
383
330
1F
100
AcDbEntity
  8
0
  6
Continuous
 62
     7
100
AcDbCircle
 10
74.35000000000011
 20
81.45935674649466
 30
0.0
 40
1.624999999999972
  0
CIRCLE
  5
384
330
1F
100
AcDbEntity
  8
0
  6
Continuous
 62
     7
100
AcDbCircle
 10
74.35000000000011
 20
81.45935674649466
 30
0.0
 40
1.949999999999989
  0
CIRCLE
  5
385
330
1F
100
AcDbEntity
  8
0
  6
Continuous
 62
     7
100
AcDbCircle
 10
80.85000000000011
 20
81.45935674649463
 30
0.0
 40
1.949999999999989
  0
CIRCLE
  5
386
330
1F
100
AcDbEntity
  8
0
  6
Continuous
 62
     7
100
AcDbCircle
 10
87.35000000000005
 20
238.0105516132647
 30
0.0
 40
1.300000000000011
  0
CIRCLE
  5
387
330
1F
100
AcDbEntity
  8
0
  6
Continuous
 62
     7
100
AcDbCircle
 10
80.85000000000011
 20
238.0105516132647
 30
0.0
 40
1.300000000000011
  0
CIRCLE
  5
388
330
1F
100
AcDbEntity
  8
0
  6
Continuous
 62
     7
100
AcDbCircle
 10
87.35000000000005
 20
238.0105516132647
 30
0.0
 40
1.949999999999903
  0
CIRCLE
  5
389
330
1F
100
AcDbEntity
  8
0
  6
Continuous
 62
     7
100
AcDbCircle
 10
67.85000000000011
 20
238.0105516132647
 30
0.0
 40
1.300000000000011
  0
CIRCLE
  5
38A
330
1F
100
AcDbEntity
  8
0
  6
Continuous
 62
     7
100
AcDbCircle
 10
74.35000000000005
 20
238.0105516132647
 30
0.0
 40
1.300000000000011
  0
CIRCLE
  5
38B
330
1F
100
AcDbEntity
  8
0
  6
Continuous
 62
     7
100
AcDbCircle
 10
67.85000000000011
 20
238.0105516132647
 30
0.0
 40
1.950000000000017
  0
CIRCLE
  5
38C
330
1F
100
AcDbEntity
  8
0
  6
Continuous
 62
     7
100
AcDbCircle
 10
74.35000000000005
 20
238.0105516132647
 30
0.0
 40
1.950000000000017
  0
CIRCLE
  5
38D
330
1F
100
AcDbEntity
  8
0
  6
Continuous
 62
     7
100
AcDbCircle
 10
80.85000000000011
 20
238.0105516132647
 30
0.0
 40
1.949999999999903
  0
ARC
  5
38E
102
{ACAD_REACTORS
330
3CE
102
}
330
1F
100
AcDbEntity
  8
1
  6
Continuous
 62
     7
100
AcDbCircle
 10
194.3429673554094
 20
10.07749983983263
 30
0.0
 40
0.3333333333332007
100
AcDbArc
 50
180.0
 51
299.981639368863
  0
ARC
  5
38F
102
{ACAD_REACTORS
330
3CE
102
}
330
1F
100
AcDbEntity
  8
1
  6
Continuous
 62
     7
100
AcDbCircle
 10
194.3429673554094
 20
14.92250016016737
 30
0.0
 40
0.3333333333334166
100
AcDbArc
 50
60.01836063113698
 51
180.0
  0
ARC
  5
390
330
1F
100
AcDbEntity
  8
1
  6
Continuous
 62
     7
100
AcDbCircle
 10
200.0094488883027
 20
12.5
 30
0.0
 40
0.166666666666687
100
AcDbArc
 50
299.9816393688503
 51
60.01836063112923
  0
ARC
  5
391
330
1F
100
AcDbEntity
  8
1
  6
Continuous
 62
     7
100
AcDbCircle
 10
183.3431524891829
 20
12.5
 30
0.0
 40
0.1666666666666265
100
AcDbArc
 50
119.9816393688962
 51
240.0183606311243
  0
ARC
  5
392
102
{ACAD_REACTORS
330
3D0
102
}
330
1F
100
AcDbEntity
  8
1
  6
Continuous
 62
     7
100
AcDbCircle
 10
189.3429673554094
 20
10.2700211480327
 30
0.0
 40
0.6666666666666003
100
AcDbArc
 50
180.0000000000104
 51
240.0183606311601
  0
ARC
  5
393
102
{ACAD_REACTORS
330
3CD
102
}
330
1F
100
AcDbEntity
  8
1
  6
Continuous
 62
     7
100
AcDbCircle
 10
191.6763006887428
 20
12.83333333333326
 30
0.0
 40
0.166666666666709
100
AcDbArc
 50
209.9999999999622
 51
330.0000000000231
  0
ARC
  5
394
330
1F
100
AcDbEntity
  8
1
  6
Continuous
 62
     4
100
AcDbCircle
 10
67.62508974489846
 20
165.5007082302075
 30
0.0
 40
0.0490206755353068
100
AcDbArc
 50
29.98163936884049
 51
150.0183606310931
  0
ARC
  5
395
330
1F
100
AcDbEntity
  8
1
  6
Continuous
 62
     4
100
AcDbCircle
 10
67.62508974489846
 20
160.5987495812779
 30
0.0
 40
0.0490206755352083
100
AcDbArc
 50
209.9816393689069
 51
330.0183606311595
  0
MTEXT
  5
397
330
1F
100
AcDbEntity
  8
1
 62
     7
100
AcDbMText
 10
82.65000000000006
 20
235.4105516132647
 30
0.0
 40
1.5
 41
0.0
 71
     5
 72
     1
  1
2
  7
CONVERTER_11
 73
     1
 44
1.32052821128451
  0
MTEXT
  5
398
330
1F
100
AcDbEntity
  8
1
 62
     7
100
AcDbMText
 10
72.55000000000004
 20
235.4105516132647
 30
0.0
 40
1.5
 41
0.0
 71
     5
 72
     1
  1
3
  7
CONVERTER_11
 73
     1
 44
1.32052821128451
  0
MTEXT
  5
399
330
1F
100
AcDbEntity
  8
1
 62
     7
100
AcDbMText
 10
66.05000000000004
 20
235.4105516132647
 30
0.0
 40
1.5
 41
0.0
 71
     5
 72
     1
  1
4
  7
CONVERTER_11
 73
     1
 44
1.32052821128451
  0
MTEXT
  5
39A
330
1F
100
AcDbEntity
  8
1
 62
     7
100
AcDbMText
 10
89.15000000000015
 20
235.4105516132647
 30
0.0
 40
1.5
 41
0.0
 71
     5
 72
     1
  1
1
  7
CONVERTER_11
 73
     1
 44
1.32052821128451
  0
MTEXT
  5
39B
330
1F
100
AcDbEntity
  8
1
 62
     7
100
AcDbMText
 10
87.40000000000012
 20
78.35935674649461
 30
0.0
 40
1.5
 41
0.0
 71
     5
 72
     1
  1
1
  7
CONVERTER_11
 73
     1
 44
1.32052821128451
  0
MTEXT
  5
39C
330
1F
100
AcDbEntity
  8
1
 62
     7
100
AcDbMText
 10
80.90000000000012
 20
78.35935674649461
 30
0.0
 40
1.5
 41
0.0
 71
     5
 72
     1
  1
2
  7
CONVERTER_11
 73
     1
 44
1.32052821128451
  0
MTEXT
  5
39D
330
1F
100
AcDbEntity
  8
1
 62
     7
100
AcDbMText
 10
74.40000000000012
 20
78.35935674649461
 30
0.0
 40
1.5
 41
0.0
 71
     5
 72
     1
  1
3
  7
CONVERTER_11
 73
     1
 44
1.32052821128451
  0
MTEXT
  5
39F
330
1F
100
AcDbEntity
  8
1
 62
     7
100
AcDbMText
 10
57.28000000000011
 20
12.5
 30
0.0
 40
4.5
 41
0.0
 71
     4
 72
     1
  1
CX 01 JM\Pmale modular 1xRJ45 + 4P 10A 250V
  7
CONVERTER_12
 73
     1
 44
0.90036014405762
  0
MTEXT
  5
3A0
330
1F
100
AcDbEntity
  8
1
 62
     7
100
AcDbMText
 10
67.90000000000012
 20
78.35935674649461
 30
0.0
 40
1.5
 41
0.0
 71
     5
 72
     1
  1
4
  7
CONVERTER_11
 73
     1
 44
1.32052821128451
  0
MTEXT
  5
3A1
330
1F
100
AcDbEntity
  8
1
 62
     7
100
AcDbMText
 10
72.87491025510157
 20
163.0497289057427
 30
0.0
 40
2.0
 41
0.0
 71
     5
 72
     1
  1
CX 01  M
  7
CONVERTER_11
 11
6.123232939436859E-17
 21
1.0
 31
0.0
 73
     1
 44
1.32052821128451
  0
MTEXT
  5
3A3
330
1F
100
AcDbEntity
  8
1
 62
     7
100
AcDbMText
 10
82.32508974489856
 20
163.0497289057427
 30
0.0
 40
1.4
 41
0.0
 71
     5
 72
     1
  1
10A 250V 4kV 3
  7
CONVERTER_13
 11
0.0
 21
1.0
 31
0.0
 73
     1
 44
1.32052821128451
  0
MTEXT
  5
3A4
330
1F
100
AcDbEntity
  8
1
 62
     7
100
AcDbMText
 10
72.87491025510157
 20
166.9497289057427
 30
0.0
 40
2.0
 41
0.0
 71
     5
 72
     1
  1
J
  7
CONVERTER_11
 11
6.123232939436859E-17
 21
1.0
 31
0.0
 73
     1
 44
1.32052821128451
  0
MTEXT
  5
3A5
330
1F
100
AcDbEntity
  8
1
 62
     7
100
AcDbMText
 10
16.0
 20
151.4999999999998
 30
0.0
 40
4.0
 41
0.0
 71
     5
 72
     1
  1
Diritti riservati      All rights reserved
  7
CONVERTER_12
 11
0.0
 21
1.0
 31
0.0
 73
     1
 44
1.32052821128451
  0
MTEXT
  5
3A6
330
1F
100
AcDbEntity
  8
1
 62
     7
100
AcDbMText
 10
23.00000000000011
 20
16.26063942075601
 30
0.0
 40
3.0
 41
0.0
 71
     4
 72
     1
  1
Date
  7
CONVERTER_12
 73
     1
 44
1.32052821128451
  0
MTEXT
  5
3A7
330
1F
100
AcDbEntity
  8
1
 62
     7
100
AcDbMText
 10
33.60000000000011
 20
16.26063942075601
 30
0.0
 40
3.0
 41
0.0
 71
     4
 72
     1
  1
06/11/06
  7
CONVERTER_12
 73
     1
 44
1.32052821128451
  0
MTEXT
  5
3A8
330
1F
100
AcDbEntity
  8
1
 62
     7
100
AcDbMText
 10
23.00000000000011
 20
8.75000000000003
 30
0.0
 40
3.0
 41
0.0
 71
     4
 72
     1
  1
Sign.
  7
CONVERTER_12
 73
     1
 44
1.32052821128451
  0
MTEXT
  5
3A9
330
1F
100
AcDbEntity
  8
1
 62
     7
100
AcDbMText
 10
33.60000000000011
 20
8.75000000000003
 30
0.0
 40
3.0
 41
0.0
 71
     4
 72
     1
  1
T.Tedeschi
  7
CONVERTER_12
 73
     1
 44
1.32052821128451
  0
MTEXT
  5
3AA
330
1F
100
AcDbEntity
  8
1
 62
     7
100
AcDbMText
 10
169.6763006887428
 20
16.26063942075601
 30
0.0
 40
3.0
 41
0.0
 71
     5
 72
     1
  1
Scale
  7
CONVERTER_12
 73
     1
 44
1.32052821128451
  0
MTEXT
  5
3AB
330
1F
100
AcDbEntity
  8
1
 62
     7
100
AcDbMText
 10
169.6763006887428
 20
10.06063942075608
 30
0.0
 40
4.5
 41
0.0
 71
     5
 72
     1
  1
1:1
  7
CONVERTER_12
 73
     1
 44
1.32052821128451
  0
DIMENSION
  5
3B6
330
1F
100
AcDbEntity
  8
1
100
AcDbDimension
  2
*D1
 10
180.100602930276
 20
140.7997289057426
 30
0.0
 11
176.450602930276
 21
157.5497289057427
 31
0.0
 70
    32
  1
<>
 71
     5
 42
-1.0
 53
90.0
  3
ME10_DIM_10
100
AcDbAlignedDimension
 13
167.9000000000001
 23
174.2997289057427
 33
0.0
 14
165.9000000000001
 24
140.7997289057426
 34
0.0
 50
90.0
100
AcDbRotatedDimension
  0
DIMENSION
  5
3C1
330
1F
100
AcDbEntity
  8
1
100
AcDbDimension
  2
*D2
 10
135.9000000000001
 20
185.131527014503
 30
0.0
 11
150.9000000000001
 21
188.631527014503
 31
0.0
 70
    32
  1
<>
 71
     5
 42
-1.0
 53
0.00013888888889
  3
ME10_DIM_11
100
AcDbAlignedDimension
 13
165.9000000000001
 23
174.2997289057427
 33
0.0
 14
135.9
 24
174.2997289057426
 34
0.0
100
AcDbRotatedDimension
  0
DIMENSION
  5
3CC
330
1F
100
AcDbEntity
  8
1
100
AcDbDimension
  2
*D3
 10
62.90000000000016
 20
184.981527014503
 30
0.0
 11
77.60000000000015
 21
188.631527014503
 31
0.0
 70
    32
  1
<>
 71
     5
 42
-1.0
 53
0.00013888888889
  3
ME10_DIM_12
100
AcDbAlignedDimension
 13
92.30000000000014
 23
174.2997289057427
 33
0.0
 14
62.90000000000016
 24
174.2997289057427
 34
0.0
100
AcDbRotatedDimension
  0
HATCH
  5
3CD
330
1F
100
AcDbEntity
  8
1
  6
Continuous
 62
     7
100
AcDbHatch
 10
0.0
 20
0.0
 30
0.0
210
0.0
220
0.0
230
1.0
  2
SOLID
 70
     1
 71
     1
 91
        1
 92
        1
 93
       16
 72
     2
 10
190.2746002345514
 20
15.73121731203457
 40
0.2649662124752854
 50
30.00000000001921
 51
180.0
 73
     1
 72
     1
 10
190.0096340220761
 20
15.73121731203457
 11
190.0096340220761
 21
12.5
 72
     1
 10
190.0096340220761
 20
12.5
 11
190.0096340220761
 21
10.84758507263291
 72
     2
 10
190.3429673554094
 20
10.84758507263291
 40
0.333333333333286
 50
180.0
 51
360.0
 73
     1
 72
     1
 10
190.6763006887428
 20
10.84758507263291
 11
190.6763006887428
 21
12.5
 72
     1
 10
190.6763006887428
 20
12.5
 11
190.6763006887428
 21
14.23205080756884
 72
     1
 10
190.6763006887428
 20
14.23205080756884
 11
191.5319631214453
 21
12.75
 72
     2
 10
191.6763006887428
 20
12.83333333333326
 40
0.166666666666709
 50
209.9999999999622
 51
330.0000000000231
 73
     1
 72
     1
 10
191.8206382560402
 20
12.75
 11
192.6763006887428
 21
14.23205080756884
 72
     1
 10
192.6763006887428
 20
14.23205080756884
 11
192.6763006887428
 21
12.5
 72
     1
 10
192.6763006887428
 20
12.5
 11
192.6763006887428
 21
9.308269070601796
 72
     2
 10
193.0096340220762
 20
9.308269070601796
 40
0.3333333333333997
 50
180.0
 51
360.0
 73
     1
 72
     1
 10
193.3429673554094
 20
9.308269070601796
 11
193.3429673554094
 21
15.73121731203457
 72
     2
 10
193.0780011429341
 20
15.73121731203457
 40
0.2649662124752865
 50
0.0
 51
149.9999999999716
 73
     1
 72
     1
 10
192.8485336717861
 20
15.86370041827229
 11
191.6763006887428
 21
13.83333333333326
 72
     1
 10
191.6763006887428
 20
13.83333333333326
 11
190.5040677056995
 21
15.86370041827229
 97
       16
330
BB
330
312
330
BC
330
313
330
BD
330
C9
330
C8
330
393
330
C7
330
C6
330
BE
330
314
330
BF
330
C1
330
315
330
C0
 75
     0
 76
     1
 98
        1
 10
0.0
 20
0.0
  0
HATCH
  5
3CE
330
1F
100
AcDbEntity
  8
1
  6
Continuous
 62
     7
100
AcDbHatch
 10
0.0
 20
0.0
 30
0.0
210
0.0
220
0.0
230
1.0
  2
SOLID
 70
     1
 71
     1
 91
        1
 92
        1
 93
       14
 72
     1
 10
194.5095415065727
 20
15.21122868885027
 11
195.8428748399059
 21
14.44199791961944
 72
     2
 10
195.6763006887428
 20
14.15326939093666
 40
0.3333333333333613
 50
299.9816393688436
 51
479.9816393688459
 73
     0
 72
     1
 10
195.5097265375796
 20
13.86454086225376
 11
194.6763006887428
 21
14.34536346735195
 72
     1
 10
194.6763006887428
 20
14.34536346735195
 11
194.6763006887428
 21
12.83333333333326
 72
     1
 10
194.6763006887428
 20
12.83333333333326
 11
195.6763006887428
 21
12.83333333333326
 72
     2
 10
195.6763006887428
 20
12.5
 40
0.3333333333333695
 50
270.0
 51
450.0
 73
     0
 72
     1
 10
195.6763006887428
 20
12.16666666666663
 11
194.6763006887428
 21
12.16666666666663
 72
     1
 10
194.6763006887428
 20
12.16666666666663
 11
194.6763006887428
 21
10.65463653264794
 72
     1
 10
194.6763006887428
 20
10.65463653264794
 11
195.5097265375796
 21
11.13545913774624
 72
     2
 10
195.6763006887428
 20
10.84673060906323
 40
0.3333333333333172
 50
240.0183606311635
 51
420.0183606311665
 73
     0
 72
     1
 10
195.8428748399059
 20
10.55800208038033
 11
194.5095415065727
 21
9.78877131114973
 72
     2
 10
194.3429673554094
 20
10.07749983983263
 40
0.3333333333332007
 50
60.01836063113696
 51
180.0
 73
     0
 72
     1
 10
194.0096340220762
 20
10.07749983983263
 11
194.0096340220762
 21
14.92250016016737
 72
     2
 10
194.3429673554094
 20
14.92250016016737
 40
0.3333333333334166
 50
180.0
 51
299.981639368863
 73
     0
 97
       14
330
B3
330
30D
330
B2
330
B1
330
B0
330
30C
330
AF
330
AE
330
AD
330
30B
330
AC
330
38E
330
AB
330
38F
 75
     0
 76
     1
 98
        1
 10
0.0
 20
0.0
  0
HATCH
  5
3CF
330
1F
100
AcDbEntity
  8
1
  6
Continuous
 62
     7
100
AcDbHatch
 10
0.0
 20
0.0
 30
0.0
210
0.0
220
0.0
230
1.0
  2
SOLID
 70
     1
 71
     1
 91
        1
 92
        1
 93
        5
 72
     1
 10
188.0096340220761
 20
14.15326939093666
 11
188.0096340220761
 21
11.0392519172633
 72
     1
 10
188.0096340220761
 20
11.0392519172633
 11
188.0096340220761
 21
10.84673060906323
 72
     2
 10
187.6763006887428
 20
10.84673060906323
 40
0.3333333333333997
 50
0.0
 51
180.0
 73
     0
 72
     1
 10
187.3429673554094
 20
10.84673060906323
 11
187.3429673554094
 21
14.15326939093666
 72
     2
 10
187.6763006887428
 20
14.15326939093666
 40
0.3333333333333144
 50
180.0
 51
360.0
 73
     0
 97
        5
330
B6
330
B5
330
30E
330
B4
330
30F
 75
     0
 76
     1
 98
        1
 10
0.0
 20
0.0
  0
HATCH
  5
3D0
330
1F
100
AcDbEntity
  8
1
  6
Continuous
 62
     7
100
AcDbHatch
 10
0.0
 20
0.0
 30
0.0
210
0.0
220
0.0
230
1.0
  2
SOLID
 70
     1
 71
     1
 91
        1
 92
        1
 93
        7
 72
     1
 10
189.3429673554094
 20
14.92250016016737
 11
189.3429673554094
 21
10.2700211480327
 72
     1
 10
189.3429673554094
 20
10.2700211480327
 11
191.5095415065727
 21
9.020074522361597
 72
     2
 10
191.3429673554094
 20
8.731345993678701
 40
0.3333333333333567
 50
299.9816393688633
 51
479.9816393688463
 73
     0
 72
     1
 10
191.1763932042462
 20
8.442617464995806
 11
189.0098190530831
 21
9.692564090666906
 72
     2
 10
189.3429673554094
 20
10.2700211480327
 40
0.6666666666666003
 50
119.9816393688399
 51
179.9999999999896
 73
     0
 72
     1
 10
188.6763006887428
 20
10.27002114803258
 11
188.6763006887428
 21
14.92250016016737
 72
     2
 10
189.0096340220761
 20
14.92250016016737
 40
0.333333333333286
 50
180.0
 51
360.0
 73
     0
 97
        7
330
B9
330
B8
330
310
330
B7
330
392
330
BA
330
311
 75
     0
 76
     1
 98
        1
 10
0.0
 20
0.0
  0
HATCH
  5
3D1
330
1F
100
AcDbEntity
  8
1
  6
Continuous
 62
     2
100
AcDbHatch
 10
0.0
 20
0.0
 30
0.0
210
0.0
220
0.0
230
1.0
  2
SOLID
 70
     1
 71
     1
 91
        1
 92
        1
 93
        3
 72
     1
 10
69.49999999999997
 20
76.95935674649505
 11
70.99999999999997
 21
76.95935674649505
 72
     1
 10
70.99999999999997
 20
76.95935674649505
 11
70.24999999999997
 21
74.95935674649505
 72
     1
 10
70.24999999999997
 20
74.95935674649505
 11
69.49999999999997
 21
76.95935674649505
 97
        3
330
E3
330
E5
330
E4
 75
     0
 76
     1
 98
        1
 10
0.0
 20
0.0
  0
HATCH
  5
3D2
330
1F
100
AcDbEntity
  8
1
  6
Continuous
 62
     2
100
AcDbHatch
 10
0.0
 20
0.0
 30
0.0
210
0.0
220
0.0
230
1.0
  2
SOLID
 70
     1
 71
     1
 91
        1
 92
        1
 93
        3
 72
     1
 10
84.20000000000007
 20
76.95935674649505
 11
85.70000000000007
 21
76.95935674649505
 72
     1
 10
85.70000000000007
 20
76.95935674649505
 11
84.95000000000007
 21
74.95935674649505
 72
     1
 10
84.95000000000007
 20
74.95935674649505
 11
84.20000000000007
 21
76.95935674649505
 97
        3
330
E8
330
E6
330
E7
 75
     0
 76
     1
 98
        1
 10
0.0
 20
0.0
  0
ENDSEC
  0
SECTION
  2
OBJECTS
  0
DICTIONARY
  5
C
330
0
100
AcDbDictionary
281
     1
  3
ACAD_GROUP
350
D
  3
ACAD_LAYOUT
350
1A
  3
ACAD_MATERIAL
350
3B
  3
ACAD_MLEADERSTYLE
350
3D5
  3
ACAD_MLINESTYLE
350
17
  3
ACAD_PLOTSETTINGS
350
19
  3
ACAD_PLOTSTYLENAME
350
E
  3
ACAD_VISUALSTYLE
350
2A
  3
AcDbVariableDictionary
350
3D3
  0
DICTIONARY
  5
D
102
{ACAD_REACTORS
330
C
102
}
330
C
100
AcDbDictionary
281
     1
  0
DICTIONARY
  5
1A
102
{ACAD_REACTORS
330
C
102
}
330
C
100
AcDbDictionary
281
     1
  3
Layout1
350
1E
  3
Layout2
350
26
  3
Model
350
22
  0
DICTIONARY
  5
3B
102
{ACAD_REACTORS
330
C
102
}
330
C
100
AcDbDictionary
281
     1
  3
ByBlock
350
3D
  3
ByLayer
350
3C
  3
Global
350
3E
  0
DICTIONARY
  5
3D5
102
{ACAD_REACTORS
330
C
102
}
330
C
100
AcDbDictionary
281
     1
  0
DICTIONARY
  5
17
102
{ACAD_REACTORS
330
C
102
}
330
C
100
AcDbDictionary
281
     1
  3
Standard
350
18
  0
DICTIONARY
  5
19
102
{ACAD_REACTORS
330
C
102
}
330
C
100
AcDbDictionary
281
     1
  0
ACDBDICTIONARYWDFLT
  5
E
102
{ACAD_REACTORS
330
C
102
}
330
C
100
AcDbDictionary
281
     1
  3
Normal
350
F
100
AcDbDictionaryWithDefault
340
F
  0
DICTIONARY
  5
2A
102
{ACAD_REACTORS
330
C
102
}
330
C
100
AcDbDictionary
281
     1
  3
2dWireframe
350
2F
  3
3D Hidden
350
31
  3
3dWireframe
350
30
  3
Basic
350
32
  3
Brighten
350
36
  3
ColorChange
350
3A
  3
Conceptual
350
34
  3
Dim
350
35
  3
Facepattern
350
39
  3
Flat
350
2B
  3
FlatWithEdges
350
2C
  3
Gouraud
350
2D
  3
GouraudWithEdges
350
2E
  3
Linepattern
350
38
  3
Realistic
350
33
  3
Thicken
350
37
  0
DICTIONARY
  5
3D3
102
{ACAD_REACTORS
330
C
102
}
330
C
100
AcDbDictionary
281
     1
  3
DIMASSOC
350
3D6
  3
HIDETEXT
350
3D7
  0
LAYOUT
  5
1E
102
{ACAD_REACTORS
330
1A
102
}
330
1A
100
AcDbPlotSettings
  1

  2
none_device
  4

  6

 40
0.0
 41
0.0
 42
0.0
 43
0.0
 44
0.0
 45
0.0
 46
0.0
 47
0.0
 48
0.0
 49
0.0
140
0.0
141
0.0
142
1.0
143
1.0
 70
   688
 72
     0
 73
     0
 74
     5
  7

 75
    16
147
1.0
148
0.0
149
0.0
100
AcDbLayout
  1
Layout1
 70
     1
 71
     1
 10
0.0
 20
0.0
 11
12.0
 21
9.0
 12
0.0
 22
0.0
 32
0.0
 14
1.00000000000000E+20
 24
1.00000000000000E+20
 34
1.00000000000000E+20
 15
-1.00000000000000E+20
 25
-1.00000000000000E+20
 35
-1.00000000000000E+20
146
0.0
 13
0.0
 23
0.0
 33
0.0
 16
1.0
 26
0.0
 36
0.0
 17
0.0
 27
1.0
 37
0.0
 76
     0
330
1B
  0
LAYOUT
  5
26
102
{ACAD_REACTORS
330
1A
102
}
330
1A
100
AcDbPlotSettings
  1

  2
none_device
  4

  6

 40
0.0
 41
0.0
 42
0.0
 43
0.0
 44
0.0
 45
0.0
 46
0.0
 47
0.0
 48
0.0
 49
0.0
140
0.0
141
0.0
142
1.0
143
1.0
 70
   688
 72
     0
 73
     0
 74
     5
  7

 75
    16
147
1.0
148
0.0
149
0.0
100
AcDbLayout
  1
Layout2
 70
     1
 71
     2
 10
0.0
 20
0.0
 11
0.0
 21
0.0
 12
0.0
 22
0.0
 32
0.0
 14
0.0
 24
0.0
 34
0.0
 15
0.0
 25
0.0
 35
0.0
146
0.0
 13
0.0
 23
0.0
 33
0.0
 16
1.0
 26
0.0
 36
0.0
 17
0.0
 27
1.0
 37
0.0
 76
     0
330
23
  0
LAYOUT
  5
22
102
{ACAD_REACTORS
330
1A
102
}
330
1A
100
AcDbPlotSettings
  1

  2
none_device
  4

  6

 40
0.0
 41
0.0
 42
0.0
 43
0.0
 44
0.0
 45
0.0
 46
0.0
 47
0.0
 48
0.0
 49
0.0
140
0.0
141
0.0
142
1.0
143
1.0
 70
  1712
 72
     0
 73
     0
 74
     0
  7

 75
     0
147
1.0
148
0.0
149
0.0
100
AcDbLayout
  1
Model
 70
     1
 71
     0
 10
0.0
 20
0.0
 11
12.0
 21
9.0
 12
0.0
 22
0.0
 32
0.0
 14
0.0
 24
0.0
 34
0.0
 15
210.0000000000001
 25
297.0000000000001
 35
0.0
146
0.0
 13
0.0
 23
0.0
 33
0.0
 16
1.0
 26
0.0
 36
0.0
 17
0.0
 27
1.0
 37
0.0
 76
     0
330
1F
331
29
  0
MATERIAL
  5
3D
102
{ACAD_REACTORS
330
3B
102
}
102
{ACAD_XDICTIONARY
360
3FA
102
}
330
3B
100
AcDbMaterial
  1
ByBlock
  0
MATERIAL
  5
3C
102
{ACAD_REACTORS
330
3B
102
}
102
{ACAD_XDICTIONARY
360
3F8
102
}
330
3B
100
AcDbMaterial
  1
ByLayer
  0
MATERIAL
  5
3E
102
{ACAD_REACTORS
330
3B
102
}
102
{ACAD_XDICTIONARY
360
3FC
102
}
330
3B
100
AcDbMaterial
  1
Global
  0
MLINESTYLE
  5
18
102
{ACAD_REACTORS
330
17
102
}
330
17
100
AcDbMlineStyle
  2
Standard
 70
     0
  3

 62
   256
 51
90.0
 52
90.0
 71
     2
 49
0.5
 62
   256
  6
BYLAYER
 49
-0.5
 62
   256
  6
BYLAYER
  0
ACDBPLACEHOLDER
  5
F
102
{ACAD_REACTORS
330
E
102
}
330
E
  0
VISUALSTYLE
  5
2F
102
{ACAD_REACTORS
330
2A
102
}
102
{ACAD_XDICTIONARY
360
3E0
102
}
330
2A
100
AcDbVisualStyle
  2
2dWireframe
 70
     4
 71
     0
 72
     2
 73
     0
 90
        0
 40
-0.6
 41
-30.0
 62
     5
 63
     7
 74
     1
 91
        4
 64
     7
 65
   257
 75
     1
175
     1
 42
1.0
 92
        0
 66
   257
 43
1.0
 76
     1
 77
     6
 78
     2
 67
     7
 79
     5
170
     0
171
     0
290
     0
174
     0
 93
        1
 44
0.0
173
     0
291
     0
 45
0.0
1001
ACAD
1000
AcDbSavedByObjectVersion
1070
     0
  0
VISUALSTYLE
  5
31
102
{ACAD_REACTORS
330
2A
102
}
102
{ACAD_XDICTIONARY
360
3E4
102
}
330
2A
100
AcDbVisualStyle
  2
3D Hidden
 70
     6
 71
     1
 72
     2
 73
     2
 90
        0
 40
-0.6
 41
-30.0
 62
     5
 63
     7
 74
     2
 91
        2
 64
     7
 65
   257
 75
     2
175
     1
 42
40.0
 92
        0
 66
   257
 43
1.0
 76
     1
 77
     6
 78
     2
 67
     7
 79
     3
170
     0
171
     0
290
     0
174
     0
 93
        1
 44
0.0
173
     0
291
     0
 45
0.0
1001
ACAD
1000
AcDbSavedByObjectVersion
1070
     0
  0
VISUALSTYLE
  5
30
102
{ACAD_REACTORS
330
2A
102
}
102
{ACAD_XDICTIONARY
360
3E2
102
}
330
2A
100
AcDbVisualStyle
  2
3dWireframe
 70
     5
 71
     0
 72
     2
 73
     0
 90
        0
 40
-0.6
 41
-30.0
 62
     5
 63
     7
 74
     1
 91
        4
 64
     7
 65
   257
 75
     1
175
     1
 42
1.0
 92
        0
 66
   257
 43
1.0
 76
     1
 77
     6
 78
     2
 67
     7
 79
     5
170
     0
171
     0
290
     0
174
     0
 93
        1
 44
0.0
173
     0
291
     0
 45
0.0
1001
ACAD
1000
AcDbSavedByObjectVersion
1070
     0
  0
VISUALSTYLE
  5
32
102
{ACAD_REACTORS
330
2A
102
}
102
{ACAD_XDICTIONARY
360
3E6
102
}
330
2A
100
AcDbVisualStyle
  2
Basic
 70
     7
 71
     1
 72
     0
 73
     1
 90
        0
 40
-0.6
 41
-30.0
 62
     5
 63
     7
 74
     0
 91
        4
 64
     7
 65
   257
 75
     1
175
     1
 42
1.0
 92
        8
 66
     7
 43
1.0
 76
     1
 77
     6
 78
     2
 67
     7
 79
     5
170
     0
171
     0
290
     0
174
     0
 93
        1
 44
0.0
173
     0
291
     1
 45
0.0
1001
ACAD
1000
AcDbSavedByObjectVersion
1070
     0
  0
VISUALSTYLE
  5
36
102
{ACAD_REACTORS
330
2A
102
}
102
{ACAD_XDICTIONARY
360
3EE
102
}
330
2A
100
AcDbVisualStyle
  2
Brighten
 70
    12
 71
     2
 72
     2
 73
     0
 90
        0
 40
-0.6
 41
-30.0
 62
     5
 63
     7
 74
     1
 91
        4
 64
     7
 65
   257
 75
     1
175
     1
 42
1.0
 92
        8
 66
     7
 43
1.0
 76
     1
 77
     6
 78
     2
 67
     7
 79
     5
170
     0
171
     0
290
     0
174
     0
 93
        1
 44
50.0
173
     0
291
     1
 45
0.0
1001
ACAD
1000
AcDbSavedByObjectVersion
1070
     0
  0
VISUALSTYLE
  5
3A
102
{ACAD_REACTORS
330
2A
102
}
102
{ACAD_XDICTIONARY
360
3F6
102
}
330
2A
100
AcDbVisualStyle
  2
ColorChange
 70
    16
 71
     2
 72
     2
 73
     3
 90
        0
 40
-0.6
 41
-30.0
 62
     5
 63
     8
 74
     1
 91
        4
 64
     7
 65
   257
 75
     1
175
     1
 42
1.0
 92
        8
 66
     8
 43
1.0
 76
     1
 77
     6
 78
     2
 67
     7
 79
     5
170
     0
171
     0
290
     0
174
     0
 93
        1
 44
0.0
173
     0
291
     1
 45
0.0
1001
ACAD
1000
AcDbSavedByObjectVersion
1070
     0
  0
VISUALSTYLE
  5
34
102
{ACAD_REACTORS
330
2A
102
}
102
{ACAD_XDICTIONARY
360
3EA
102
}
330
2A
100
AcDbVisualStyle
  2
Conceptual
 70
     9
 71
     3
 72
     2
 73
     0
 90
        0
 40
-0.6
 41
-30.0
 62
     5
 63
     7
 74
     2
 91
        2
 64
     7
 65
   257
 75
     1
175
     1
 42
40.0
 92
        8
 66
     7
 43
1.0
 76
     1
 77
     6
 78
     2
 67
     7
 79
     3
170
     0
171
     0
290
     0
174
     0
 93
        1
 44
0.0
173
     0
291
     0
 45
0.0
1001
ACAD
1000
AcDbSavedByObjectVersion
1070
     0
  0
VISUALSTYLE
  5
35
102
{ACAD_REACTORS
330
2A
102
}
102
{ACAD_XDICTIONARY
360
3EC
102
}
330
2A
100
AcDbVisualStyle
  2
Dim
 70
    11
 71
     2
 72
     2
 73
     0
 90
        0
 40
-0.6
 41
-30.0
 62
     5
 63
     7
 74
     1
 91
        4
 64
     7
 65
   257
 75
     1
175
     1
 42
1.0
 92
        8
 66
     7
 43
1.0
 76
     1
 77
     6
 78
     2
 67
     7
 79
     5
170
     0
171
     0
290
     0
174
     0
 93
        1
 44
-50.0
173
     0
291
     1
 45
0.0
1001
ACAD
1000
AcDbSavedByObjectVersion
1070
     0
  0
VISUALSTYLE
  5
39
102
{ACAD_REACTORS
330
2A
102
}
102
{ACAD_XDICTIONARY
360
3F4
102
}
330
2A
100
AcDbVisualStyle
  2
Facepattern
 70
    15
 71
     2
 72
     2
 73
     0
 90
        0
 40
-0.6
 41
-30.0
 62
     5
 63
     7
 74
     1
 91
        4
 64
     7
 65
   257
 75
     1
175
     1
 42
1.0
 92
        8
 66
     7
 43
1.0
 76
     1
 77
     6
 78
     2
 67
     7
 79
     5
170
     0
171
     0
290
     0
174
     0
 93
        1
 44
0.0
173
     0
291
     1
 45
0.0
1001
ACAD
1000
AcDbSavedByObjectVersion
1070
     0
  0
VISUALSTYLE
  5
2B
102
{ACAD_REACTORS
330
2A
102
}
102
{ACAD_XDICTIONARY
360
3D8
102
}
330
2A
100
AcDbVisualStyle
  2
Flat
 70
     0
 71
     2
 72
     1
 73
     1
 90
        2
 40
-0.6
 41
30.0
 62
     5
 63
     7
 74
     0
 91
        4
 64
     7
 65
   257
 75
     1
175
     1
 42
1.0
 92
        8
 66
     7
 43
1.0
 76
     1
 77
     6
 78
     2
 67
     7
 79
     5
170
     0
171
     0
290
     0
174
     0
 93
       13
 44
0.0
173
     0
291
     1
 45
0.0
1001
ACAD
1000
AcDbSavedByObjectVersion
1070
     0
  0
VISUALSTYLE
  5
2C
102
{ACAD_REACTORS
330
2A
102
}
102
{ACAD_XDICTIONARY
360
3DA
102
}
330
2A
100
AcDbVisualStyle
  2
FlatWithEdges
 70
     1
 71
     2
 72
     1
 73
     1
 90
        2
 40
-0.6
 41
30.0
 62
     5
 63
     7
 74
     1
 91
        4
 64
     7
 65
   257
 75
     1
175
     1
 42
1.0
 92
        0
 66
   257
 43
1.0
 76
     1
 77
     6
 78
     2
 67
     7
 79
     5
170
     0
171
     0
290
     0
174
     0
 93
       13
 44
0.0
173
     0
291
     1
 45
0.0
1001
ACAD
1000
AcDbSavedByObjectVersion
1070
     0
  0
VISUALSTYLE
  5
2D
102
{ACAD_REACTORS
330
2A
102
}
102
{ACAD_XDICTIONARY
360
3DC
102
}
330
2A
100
AcDbVisualStyle
  2
Gouraud
 70
     2
 71
     2
 72
     2
 73
     1
 90
        2
 40
-0.6
 41
30.0
 62
     5
 63
     7
 74
     0
 91
        4
 64
     7
 65
   257
 75
     1
175
     1
 42
1.0
 92
        0
 66
     7
 43
1.0
 76
     1
 77
     6
 78
     2
 67
     7
 79
     5
170
     0
171
     0
290
     0
174
     0
 93
       13
 44
0.0
173
     0
291
     1
 45
0.0
1001
ACAD
1000
AcDbSavedByObjectVersion
1070
     0
  0
VISUALSTYLE
  5
2E
102
{ACAD_REACTORS
330
2A
102
}
102
{ACAD_XDICTIONARY
360
3DE
102
}
330
2A
100
AcDbVisualStyle
  2
GouraudWithEdges
 70
     3
 71
     2
 72
     2
 73
     1
 90
        2
 40
-0.6
 41
30.0
 62
     5
 63
     7
 74
     1
 91
        4
 64
     7
 65
   257
 75
     1
175
     1
 42
1.0
 92
        0
 66
   257
 43
1.0
 76
     1
 77
     6
 78
     2
 67
     7
 79
     5
170
     0
171
     0
290
     0
174
     0
 93
       13
 44
0.0
173
     0
291
     1
 45
0.0
1001
ACAD
1000
AcDbSavedByObjectVersion
1070
     0
  0
VISUALSTYLE
  5
38
102
{ACAD_REACTORS
330
2A
102
}
102
{ACAD_XDICTIONARY
360
3F2
102
}
330
2A
100
AcDbVisualStyle
  2
Linepattern
 70
    14
 71
     2
 72
     2
 73
     0
 90
        0
 40
-0.6
 41
-30.0
 62
     5
 63
     7
 74
     1
 91
        4
 64
     7
 65
   257
 75
     7
175
     7
 42
1.0
 92
        8
 66
     7
 43
1.0
 76
     1
 77
     6
 78
     2
 67
     7
 79
     5
170
     0
171
     0
290
     0
174
     0
 93
        1
 44
0.0
173
     0
291
     1
 45
0.0
1001
ACAD
1000
AcDbSavedByObjectVersion
1070
     0
  0
VISUALSTYLE
  5
33
102
{ACAD_REACTORS
330
2A
102
}
102
{ACAD_XDICTIONARY
360
3E8
102
}
330
2A
100
AcDbVisualStyle
  2
Realistic
 70
     8
 71
     2
 72
     2
 73
     0
 90
        0
 40
-0.6
 41
-30.0
 62
     5
 63
     7
 74
     1
 91
        0
 64
     7
 65
   257
 75
     1
175
     1
 42
1.0
 92
        8
 66
     8
 43
1.0
 76
     1
 77
     6
 78
     2
 67
     7
 79
     5
170
     0
171
     0
290
     0
174
     0
 93
       13
 44
0.0
173
     0
291
     0
 45
0.0
1001
ACAD
1000
AcDbSavedByObjectVersion
1070
     0
  0
VISUALSTYLE
  5
37
102
{ACAD_REACTORS
330
2A
102
}
102
{ACAD_XDICTIONARY
360
3F0
102
}
330
2A
100
AcDbVisualStyle
  2
Thicken
 70
    13
 71
     2
 72
     2
 73
     0
 90
        0
 40
-0.6
 41
-30.0
 62
     5
 63
     7
 74
     1
 91
        4
 64
     7
 65
   257
 75
     1
175
     1
 42
1.0
 92
       12
 66
     7
 43
1.0
 76
     1
 77
     6
 78
     2
 67
     7
 79
     5
170
     0
171
     0
290
     0
174
     0
 93
        1
 44
0.0
173
     0
291
     1
 45
0.0
1001
ACAD
1000
AcDbSavedByObjectVersion
1070
     0
  0
DICTIONARYVAR
  5
3D6
102
{ACAD_REACTORS
330
3D3
102
}
330
3D3
100
DictionaryVariables
280
     0
  1
2
  0
DICTIONARYVAR
  5
3D7
102
{ACAD_REACTORS
330
3D3
102
}
330
3D3
100
DictionaryVariables
280
     0
  1
1
  0
DICTIONARY
  5
3FA
330
3D
100
AcDbDictionary
280
     1
281
     1
  3
ACAD_XREC_ROUNDTRIP
360
3FB
  0
DICTIONARY
  5
3F8
330
3C
100
AcDbDictionary
280
     1
281
     1
  3
ACAD_XREC_ROUNDTRIP
360
3F9
  0
DICTIONARY
  5
3FC
330
3E
100
AcDbDictionary
280
     1
281
     1
  3
ACAD_XREC_ROUNDTRIP
360
3FD
  0
DICTIONARY
  5
3E0
330
2F
100
AcDbDictionary
280
     1
281
     1
  3
ACAD_XREC_ROUNDTRIP
360
3E1
  0
DICTIONARY
  5
3E4
330
31
100
AcDbDictionary
280
     1
281
     1
  3
ACAD_XREC_ROUNDTRIP
360
3E5
  0
DICTIONARY
  5
3E2
330
30
100
AcDbDictionary
280
     1
281
     1
  3
ACAD_XREC_ROUNDTRIP
360
3E3
  0
DICTIONARY
  5
3E6
330
32
100
AcDbDictionary
280
     1
281
     1
  3
ACAD_XREC_ROUNDTRIP
360
3E7
  0
DICTIONARY
  5
3EE
330
36
100
AcDbDictionary
280
     1
281
     1
  3
ACAD_XREC_ROUNDTRIP
360
3EF
  0
DICTIONARY
  5
3F6
330
3A
100
AcDbDictionary
280
     1
281
     1
  3
ACAD_XREC_ROUNDTRIP
360
3F7
  0
DICTIONARY
  5
3EA
330
34
100
AcDbDictionary
280
     1
281
     1
  3
ACAD_XREC_ROUNDTRIP
360
3EB
  0
DICTIONARY
  5
3EC
330
35
100
AcDbDictionary
280
     1
281
     1
  3
ACAD_XREC_ROUNDTRIP
360
3ED
  0
DICTIONARY
  5
3F4
330
39
100
AcDbDictionary
280
     1
281
     1
  3
ACAD_XREC_ROUNDTRIP
360
3F5
  0
DICTIONARY
  5
3D8
330
2B
100
AcDbDictionary
280
     1
281
     1
  3
ACAD_XREC_ROUNDTRIP
360
3D9
  0
DICTIONARY
  5
3DA
330
2C
100
AcDbDictionary
280
     1
281
     1
  3
ACAD_XREC_ROUNDTRIP
360
3DB
  0
DICTIONARY
  5
3DC
330
2D
100
AcDbDictionary
280
     1
281
     1
  3
ACAD_XREC_ROUNDTRIP
360
3DD
  0
DICTIONARY
  5
3DE
330
2E
100
AcDbDictionary
280
     1
281
     1
  3
ACAD_XREC_ROUNDTRIP
360
3DF
  0
DICTIONARY
  5
3F2
330
38
100
AcDbDictionary
280
     1
281
     1
  3
ACAD_XREC_ROUNDTRIP
360
3F3
  0
DICTIONARY
  5
3E8
330
33
100
AcDbDictionary
280
     1
281
     1
  3
ACAD_XREC_ROUNDTRIP
360
3E9
  0
DICTIONARY
  5
3F0
330
37
100
AcDbDictionary
280
     1
281
     1
  3
ACAD_XREC_ROUNDTRIP
360
3F1
  0
XRECORD
  5
3FB
102
{ACAD_REACTORS
330
3FA
102
}
330
3FA
100
AcDbXrecord
280
     1
102
MATERIAL
148
0.0
149
0.0
149
0.0
 93
        0
 94
      127
282
     0
 72
     1
 77
     1
171
     1
175
     1
179
     1
273
     0
  0
XRECORD
  5
3F9
102
{ACAD_REACTORS
330
3F8
102
}
330
3F8
100
AcDbXrecord
280
     1
102
MATERIAL
148
0.0
149
0.0
149
0.0
 93
        0
 94
      127
282
     0
 72
     1
 77
     1
171
     1
175
     1
179
     1
273
     0
  0
XRECORD
  5
3FD
102
{ACAD_REACTORS
330
3FC
102
}
330
3FC
100
AcDbXrecord
280
     1
102
MATERIAL
148
0.0
149
0.0
149
0.0
 93
        0
 94
      127
282
     0
 72
     1
 77
     1
171
     1
175
     1
179
     1
273
     0
  0
XRECORD
  5
3E1
102
{ACAD_REACTORS
330
3E0
102
}
330
3E0
100
AcDbXrecord
280
     1
102
RTVSPropertyOp0
 70
     1
102
RTVSPropertyOp1
 70
     1
102
RTVSPropertyOp2
 70
     1
102
RTVSPropertyOp3
 70
     1
102
RTVSPropertyOp4
 70
     1
102
RTVSPropertyOp5
 70
     1
102
RTVSPropertyOp6
 70
     1
102
RTVSPropertyOp7
 70
     1
102
RTVSPropertyOp8
 70
     1
102
RTVSPropertyOp9
 70
     1
102
RTVSPropertyOp10
 70
     1
102
RTVSPropertyOp11
 70
     1
102
RTVSPropertyOp12
 70
     1
102
RTVSPropertyOp13
 70
     1
102
RTVSPropertyOp14
 70
     1
102
RTVSPropertyOp15
 70
     1
102
RTVSPropertyOp16
 70
     1
102
RTVSPropertyOp17
 70
     1
102
RTVSPropertyOp18
 70
     1
102
RTVSPropertyOp19
 70
     1
102
RTVSPropertyOp20
 70
     1
102
RTVSPropertyOp21
 70
     1
102
RTVSPropertyOp22
 70
     1
102
RTVSPropertyOp23
 70
     1
102
RTVSPropertyOp24
 70
     1
102
RTVSPropertyOp25
 70
     1
102
RTVSPropertyOp26
 70
     1
102
RTVSPropertyOp27
 70
     1
102
RTVSPropertyOp28
 70
     1
102
RTVSPropertyOp29
 70
     1
102
RTVSPropertyOp30
 70
     1
102
RTVSPropertyOp31
 70
     1
102
RTVSPropertyOp32
 70
     1
  0
XRECORD
  5
3E5
102
{ACAD_REACTORS
330
3E4
102
}
330
3E4
100
AcDbXrecord
280
     1
102
RTVSPropertyOp0
 70
     1
102
RTVSPropertyOp1
 70
     1
102
RTVSPropertyOp2
 70
     1
102
RTVSPropertyOp3
 70
     1
102
RTVSPropertyOp4
 70
     1
102
RTVSPropertyOp5
 70
     1
102
RTVSPropertyOp6
 70
     1
102
RTVSPropertyOp7
 70
     1
102
RTVSPropertyOp8
 70
     1
102
RTVSPropertyOp9
 70
     1
102
RTVSPropertyOp10
 70
     1
102
RTVSPropertyOp11
 70
     1
102
RTVSPropertyOp12
 70
     1
102
RTVSPropertyOp13
 70
     1
102
RTVSPropertyOp14
 70
     1
102
RTVSPropertyOp15
 70
     1
102
RTVSPropertyOp16
 70
     1
102
RTVSPropertyOp17
 70
     1
102
RTVSPropertyOp18
 70
     1
102
RTVSPropertyOp19
 70
     1
102
RTVSPropertyOp20
 70
     1
102
RTVSPropertyOp21
 70
     1
102
RTVSPropertyOp22
 70
     1
102
RTVSPropertyOp23
 70
     1
102
RTVSPropertyOp24
 70
     1
102
RTVSPropertyOp25
 70
     1
102
RTVSPropertyOp26
 70
     1
102
RTVSPropertyOp27
 70
     1
102
RTVSPropertyOp28
 70
     1
102
RTVSPropertyOp29
 70
     1
102
RTVSPropertyOp30
 70
     1
102
RTVSPropertyOp31
 70
     1
102
RTVSPropertyOp32
 70
     1
  0
XRECORD
  5
3E3
102
{ACAD_REACTORS
330
3E2
102
}
330
3E2
100
AcDbXrecord
280
     1
102
RTVSPropertyOp0
 70
     1
102
RTVSPropertyOp1
 70
     1
102
RTVSPropertyOp2
 70
     1
102
RTVSPropertyOp3
 70
     1
102
RTVSPropertyOp4
 70
     1
102
RTVSPropertyOp5
 70
     1
102
RTVSPropertyOp6
 70
     1
102
RTVSPropertyOp7
 70
     1
102
RTVSPropertyOp8
 70
     1
102
RTVSPropertyOp9
 70
     1
102
RTVSPropertyOp10
 70
     1
102
RTVSPropertyOp11
 70
     1
102
RTVSPropertyOp12
 70
     1
102
RTVSPropertyOp13
 70
     1
102
RTVSPropertyOp14
 70
     1
102
RTVSPropertyOp15
 70
     1
102
RTVSPropertyOp16
 70
     1
102
RTVSPropertyOp17
 70
     1
102
RTVSPropertyOp18
 70
     1
102
RTVSPropertyOp19
 70
     1
102
RTVSPropertyOp20
 70
     1
102
RTVSPropertyOp21
 70
     1
102
RTVSPropertyOp22
 70
     1
102
RTVSPropertyOp23
 70
     1
102
RTVSPropertyOp24
 70
     1
102
RTVSPropertyOp25
 70
     1
102
RTVSPropertyOp26
 70
     1
102
RTVSPropertyOp27
 70
     1
102
RTVSPropertyOp28
 70
     1
102
RTVSPropertyOp29
 70
     1
102
RTVSPropertyOp30
 70
     1
102
RTVSPropertyOp31
 70
     1
102
RTVSPropertyOp32
 70
     1
  0
XRECORD
  5
3E7
102
{ACAD_REACTORS
330
3E6
102
}
330
3E6
100
AcDbXrecord
280
     1
102
RTVSPropertyOp0
 70
     1
102
RTVSPropertyOp1
 70
     1
102
RTVSPropertyOp2
 70
     1
102
RTVSPropertyOp3
 70
     1
102
RTVSPropertyOp4
 70
     1
102
RTVSPropertyOp5
 70
     1
102
RTVSPropertyOp6
 70
     1
102
RTVSPropertyOp7
 70
     1
102
RTVSPropertyOp8
 70
     1
102
RTVSPropertyOp9
 70
     1
102
RTVSPropertyOp10
 70
     1
102
RTVSPropertyOp11
 70
     1
102
RTVSPropertyOp12
 70
     1
102
RTVSPropertyOp13
 70
     1
102
RTVSPropertyOp14
 70
     1
102
RTVSPropertyOp15
 70
     1
102
RTVSPropertyOp16
 70
     1
102
RTVSPropertyOp17
 70
     1
102
RTVSPropertyOp18
 70
     1
102
RTVSPropertyOp19
 70
     1
102
RTVSPropertyOp20
 70
     1
102
RTVSPropertyOp21
 70
     1
102
RTVSPropertyOp22
 70
     1
102
RTVSPropertyOp23
 70
     1
102
RTVSPropertyOp24
 70
     1
102
RTVSPropertyOp25
 70
     1
102
RTVSPropertyOp26
 70
     1
102
RTVSPropertyOp27
 70
     1
102
RTVSPropertyOp28
 70
     1
102
RTVSPropertyOp29
 70
     1
102
RTVSPropertyOp30
 70
     1
102
RTVSPropertyOp31
 70
     1
102
RTVSPropertyOp32
 70
     1
  0
XRECORD
  5
3EF
102
{ACAD_REACTORS
330
3EE
102
}
330
3EE
100
AcDbXrecord
280
     1
102
RTVSPropertyOp0
 70
     1
102
RTVSPropertyOp1
 70
     1
102
RTVSPropertyOp2
 70
     1
102
RTVSPropertyOp3
 70
     1
102
RTVSPropertyOp4
 70
     1
102
RTVSPropertyOp5
 70
     1
102
RTVSPropertyOp6
 70
     1
102
RTVSPropertyOp7
 70
     1
102
RTVSPropertyOp8
 70
     1
102
RTVSPropertyOp9
 70
     1
102
RTVSPropertyOp10
 70
     1
102
RTVSPropertyOp11
 70
     1
102
RTVSPropertyOp12
 70
     1
102
RTVSPropertyOp13
 70
     1
102
RTVSPropertyOp14
 70
     1
102
RTVSPropertyOp15
 70
     1
102
RTVSPropertyOp16
 70
     1
102
RTVSPropertyOp17
 70
     1
102
RTVSPropertyOp18
 70
     1
102
RTVSPropertyOp19
 70
     1
102
RTVSPropertyOp20
 70
     1
102
RTVSPropertyOp21
 70
     1
102
RTVSPropertyOp22
 70
     1
102
RTVSPropertyOp23
 70
     1
102
RTVSPropertyOp24
 70
     1
102
RTVSPropertyOp25
 70
     1
102
RTVSPropertyOp26
 70
     1
102
RTVSPropertyOp27
 70
     1
102
RTVSPropertyOp28
 70
     1
102
RTVSPropertyOp29
 70
     1
102
RTVSPropertyOp30
 70
     1
102
RTVSPropertyOp31
 70
     1
102
RTVSPropertyOp32
 70
     1
  0
XRECORD
  5
3F7
102
{ACAD_REACTORS
330
3F6
102
}
330
3F6
100
AcDbXrecord
280
     1
102
RTVSPropertyOp0
 70
     1
102
RTVSPropertyOp1
 70
     1
102
RTVSPropertyOp2
 70
     1
102
RTVSPropertyOp3
 70
     1
102
RTVSPropertyOp4
 70
     1
102
RTVSPropertyOp5
 70
     1
102
RTVSPropertyOp6
 70
     1
102
RTVSPropertyOp7
 70
     1
102
RTVSPropertyOp8
 70
     1
102
RTVSPropertyOp9
 70
     1
102
RTVSPropertyOp10
 70
     1
102
RTVSPropertyOp11
 70
     1
102
RTVSPropertyOp12
 70
     1
102
RTVSPropertyOp13
 70
     1
102
RTVSPropertyOp14
 70
     1
102
RTVSPropertyOp15
 70
     1
102
RTVSPropertyOp16
 70
     1
102
RTVSPropertyOp17
 70
     1
102
RTVSPropertyOp18
 70
     1
102
RTVSPropertyOp19
 70
     1
102
RTVSPropertyOp20
 70
     1
102
RTVSPropertyOp21
 70
     1
102
RTVSPropertyOp22
 70
     1
102
RTVSPropertyOp23
 70
     1
102
RTVSPropertyOp24
 70
     1
102
RTVSPropertyOp25
 70
     1
102
RTVSPropertyOp26
 70
     1
102
RTVSPropertyOp27
 70
     1
102
RTVSPropertyOp28
 70
     1
102
RTVSPropertyOp29
 70
     1
102
RTVSPropertyOp30
 70
     1
102
RTVSPropertyOp31
 70
     1
102
RTVSPropertyOp32
 70
     1
  0
XRECORD
  5
3EB
102
{ACAD_REACTORS
330
3EA
102
}
330
3EA
100
AcDbXrecord
280
     1
102
RTVSPropertyOp0
 70
     1
102
RTVSPropertyOp1
 70
     1
102
RTVSPropertyOp2
 70
     1
102
RTVSPropertyOp3
 70
     1
102
RTVSPropertyOp4
 70
     1
102
RTVSPropertyOp5
 70
     1
102
RTVSPropertyOp6
 70
     1
102
RTVSPropertyOp7
 70
     1
102
RTVSPropertyOp8
 70
     1
102
RTVSPropertyOp9
 70
     1
102
RTVSPropertyOp10
 70
     1
102
RTVSPropertyOp11
 70
     1
102
RTVSPropertyOp12
 70
     1
102
RTVSPropertyOp13
 70
     1
102
RTVSPropertyOp14
 70
     1
102
RTVSPropertyOp15
 70
     1
102
RTVSPropertyOp16
 70
     1
102
RTVSPropertyOp17
 70
     1
102
RTVSPropertyOp18
 70
     1
102
RTVSPropertyOp19
 70
     1
102
RTVSPropertyOp20
 70
     1
102
RTVSPropertyOp21
 70
     1
102
RTVSPropertyOp22
 70
     1
102
RTVSPropertyOp23
 70
     1
102
RTVSPropertyOp24
 70
     1
102
RTVSPropertyOp25
 70
     1
102
RTVSPropertyOp26
 70
     1
102
RTVSPropertyOp27
 70
     1
102
RTVSPropertyOp28
 70
     1
102
RTVSPropertyOp29
 70
     1
102
RTVSPropertyOp30
 70
     1
102
RTVSPropertyOp31
 70
     1
102
RTVSPropertyOp32
 70
     1
  0
XRECORD
  5
3ED
102
{ACAD_REACTORS
330
3EC
102
}
330
3EC
100
AcDbXrecord
280
     1
102
RTVSPropertyOp0
 70
     1
102
RTVSPropertyOp1
 70
     1
102
RTVSPropertyOp2
 70
     1
102
RTVSPropertyOp3
 70
     1
102
RTVSPropertyOp4
 70
     1
102
RTVSPropertyOp5
 70
     1
102
RTVSPropertyOp6
 70
     1
102
RTVSPropertyOp7
 70
     1
102
RTVSPropertyOp8
 70
     1
102
RTVSPropertyOp9
 70
     1
102
RTVSPropertyOp10
 70
     1
102
RTVSPropertyOp11
 70
     1
102
RTVSPropertyOp12
 70
     1
102
RTVSPropertyOp13
 70
     1
102
RTVSPropertyOp14
 70
     1
102
RTVSPropertyOp15
 70
     1
102
RTVSPropertyOp16
 70
     1
102
RTVSPropertyOp17
 70
     1
102
RTVSPropertyOp18
 70
     1
102
RTVSPropertyOp19
 70
     1
102
RTVSPropertyOp20
 70
     1
102
RTVSPropertyOp21
 70
     1
102
RTVSPropertyOp22
 70
     1
102
RTVSPropertyOp23
 70
     1
102
RTVSPropertyOp24
 70
     1
102
RTVSPropertyOp25
 70
     1
102
RTVSPropertyOp26
 70
     1
102
RTVSPropertyOp27
 70
     1
102
RTVSPropertyOp28
 70
     1
102
RTVSPropertyOp29
 70
     1
102
RTVSPropertyOp30
 70
     1
102
RTVSPropertyOp31
 70
     1
102
RTVSPropertyOp32
 70
     1
  0
XRECORD
  5
3F5
102
{ACAD_REACTORS
330
3F4
102
}
330
3F4
100
AcDbXrecord
280
     1
102
RTVSPropertyOp0
 70
     1
102
RTVSPropertyOp1
 70
     1
102
RTVSPropertyOp2
 70
     1
102
RTVSPropertyOp3
 70
     1
102
RTVSPropertyOp4
 70
     1
102
RTVSPropertyOp5
 70
     1
102
RTVSPropertyOp6
 70
     1
102
RTVSPropertyOp7
 70
     1
102
RTVSPropertyOp8
 70
     1
102
RTVSPropertyOp9
 70
     1
102
RTVSPropertyOp10
 70
     1
102
RTVSPropertyOp11
 70
     1
102
RTVSPropertyOp12
 70
     1
102
RTVSPropertyOp13
 70
     1
102
RTVSPropertyOp14
 70
     1
102
RTVSPropertyOp15
 70
     1
102
RTVSPropertyOp16
 70
     1
102
RTVSPropertyOp17
 70
     1
102
RTVSPropertyOp18
 70
     1
102
RTVSPropertyOp19
 70
     1
102
RTVSPropertyOp20
 70
     1
102
RTVSPropertyOp21
 70
     1
102
RTVSPropertyOp22
 70
     1
102
RTVSPropertyOp23
 70
     1
102
RTVSPropertyOp24
 70
     1
102
RTVSPropertyOp25
 70
     1
102
RTVSPropertyOp26
 70
     1
102
RTVSPropertyOp27
 70
     1
102
RTVSPropertyOp28
 70
     1
102
RTVSPropertyOp29
 70
     1
102
RTVSPropertyOp30
 70
     1
102
RTVSPropertyOp31
 70
     1
102
RTVSPropertyOp32
 70
     1
  0
XRECORD
  5
3D9
102
{ACAD_REACTORS
330
3D8
102
}
330
3D8
100
AcDbXrecord
280
     1
102
RTVSPropertyOp0
 70
     1
102
RTVSPropertyOp1
 70
     1
102
RTVSPropertyOp2
 70
     1
102
RTVSPropertyOp3
 70
     1
102
RTVSPropertyOp4
 70
     1
102
RTVSPropertyOp5
 70
     1
102
RTVSPropertyOp6
 70
     1
102
RTVSPropertyOp7
 70
     1
102
RTVSPropertyOp8
 70
     1
102
RTVSPropertyOp9
 70
     1
102
RTVSPropertyOp10
 70
     1
102
RTVSPropertyOp11
 70
     1
102
RTVSPropertyOp12
 70
     1
102
RTVSPropertyOp13
 70
     1
102
RTVSPropertyOp14
 70
     1
102
RTVSPropertyOp15
 70
     1
102
RTVSPropertyOp16
 70
     1
102
RTVSPropertyOp17
 70
     1
102
RTVSPropertyOp18
 70
     1
102
RTVSPropertyOp19
 70
     1
102
RTVSPropertyOp20
 70
     1
102
RTVSPropertyOp21
 70
     1
102
RTVSPropertyOp22
 70
     1
102
RTVSPropertyOp23
 70
     1
102
RTVSPropertyOp24
 70
     1
102
RTVSPropertyOp25
 70
     1
102
RTVSPropertyOp26
 70
     1
102
RTVSPropertyOp27
 70
     1
102
RTVSPropertyOp28
 70
     1
102
RTVSPropertyOp29
 70
     1
102
RTVSPropertyOp30
 70
     1
102
RTVSPropertyOp31
 70
     1
102
RTVSPropertyOp32
 70
     1
  0
XRECORD
  5
3DB
102
{ACAD_REACTORS
330
3DA
102
}
330
3DA
100
AcDbXrecord
280
     1
102
RTVSPropertyOp0
 70
     1
102
RTVSPropertyOp1
 70
     1
102
RTVSPropertyOp2
 70
     1
102
RTVSPropertyOp3
 70
     1
102
RTVSPropertyOp4
 70
     1
102
RTVSPropertyOp5
 70
     1
102
RTVSPropertyOp6
 70
     1
102
RTVSPropertyOp7
 70
     1
102
RTVSPropertyOp8
 70
     1
102
RTVSPropertyOp9
 70
     1
102
RTVSPropertyOp10
 70
     1
102
RTVSPropertyOp11
 70
     1
102
RTVSPropertyOp12
 70
     1
102
RTVSPropertyOp13
 70
     1
102
RTVSPropertyOp14
 70
     1
102
RTVSPropertyOp15
 70
     1
102
RTVSPropertyOp16
 70
     1
102
RTVSPropertyOp17
 70
     1
102
RTVSPropertyOp18
 70
     1
102
RTVSPropertyOp19
 70
     1
102
RTVSPropertyOp20
 70
     1
102
RTVSPropertyOp21
 70
     1
102
RTVSPropertyOp22
 70
     1
102
RTVSPropertyOp23
 70
     1
102
RTVSPropertyOp24
 70
     1
102
RTVSPropertyOp25
 70
     1
102
RTVSPropertyOp26
 70
     1
102
RTVSPropertyOp27
 70
     1
102
RTVSPropertyOp28
 70
     1
102
RTVSPropertyOp29
 70
     1
102
RTVSPropertyOp30
 70
     1
102
RTVSPropertyOp31
 70
     1
102
RTVSPropertyOp32
 70
     1
  0
XRECORD
  5
3DD
102
{ACAD_REACTORS
330
3DC
102
}
330
3DC
100
AcDbXrecord
280
     1
102
RTVSPropertyOp0
 70
     1
102
RTVSPropertyOp1
 70
     1
102
RTVSPropertyOp2
 70
     1
102
RTVSPropertyOp3
 70
     1
102
RTVSPropertyOp4
 70
     1
102
RTVSPropertyOp5
 70
     1
102
RTVSPropertyOp6
 70
     1
102
RTVSPropertyOp7
 70
     1
102
RTVSPropertyOp8
 70
     1
102
RTVSPropertyOp9
 70
     1
102
RTVSPropertyOp10
 70
     1
102
RTVSPropertyOp11
 70
     1
102
RTVSPropertyOp12
 70
     1
102
RTVSPropertyOp13
 70
     1
102
RTVSPropertyOp14
 70
     1
102
RTVSPropertyOp15
 70
     1
102
RTVSPropertyOp16
 70
     1
102
RTVSPropertyOp17
 70
     1
102
RTVSPropertyOp18
 70
     1
102
RTVSPropertyOp19
 70
     1
102
RTVSPropertyOp20
 70
     1
102
RTVSPropertyOp21
 70
     1
102
RTVSPropertyOp22
 70
     1
102
RTVSPropertyOp23
 70
     1
102
RTVSPropertyOp24
 70
     1
102
RTVSPropertyOp25
 70
     1
102
RTVSPropertyOp26
 70
     1
102
RTVSPropertyOp27
 70
     1
102
RTVSPropertyOp28
 70
     1
102
RTVSPropertyOp29
 70
     1
102
RTVSPropertyOp30
 70
     1
102
RTVSPropertyOp31
 70
     1
102
RTVSPropertyOp32
 70
     1
  0
XRECORD
  5
3DF
102
{ACAD_REACTORS
330
3DE
102
}
330
3DE
100
AcDbXrecord
280
     1
102
RTVSPropertyOp0
 70
     1
102
RTVSPropertyOp1
 70
     1
102
RTVSPropertyOp2
 70
     1
102
RTVSPropertyOp3
 70
     1
102
RTVSPropertyOp4
 70
     1
102
RTVSPropertyOp5
 70
     1
102
RTVSPropertyOp6
 70
     1
102
RTVSPropertyOp7
 70
     1
102
RTVSPropertyOp8
 70
     1
102
RTVSPropertyOp9
 70
     1
102
RTVSPropertyOp10
 70
     1
102
RTVSPropertyOp11
 70
     1
102
RTVSPropertyOp12
 70
     1
102
RTVSPropertyOp13
 70
     1
102
RTVSPropertyOp14
 70
     1
102
RTVSPropertyOp15
 70
     1
102
RTVSPropertyOp16
 70
     1
102
RTVSPropertyOp17
 70
     1
102
RTVSPropertyOp18
 70
     1
102
RTVSPropertyOp19
 70
     1
102
RTVSPropertyOp20
 70
     1
102
RTVSPropertyOp21
 70
     1
102
RTVSPropertyOp22
 70
     1
102
RTVSPropertyOp23
 70
     1
102
RTVSPropertyOp24
 70
     1
102
RTVSPropertyOp25
 70
     1
102
RTVSPropertyOp26
 70
     1
102
RTVSPropertyOp27
 70
     1
102
RTVSPropertyOp28
 70
     1
102
RTVSPropertyOp29
 70
     1
102
RTVSPropertyOp30
 70
     1
102
RTVSPropertyOp31
 70
     1
102
RTVSPropertyOp32
 70
     1
  0
XRECORD
  5
3F3
102
{ACAD_REACTORS
330
3F2
102
}
330
3F2
100
AcDbXrecord
280
     1
102
RTVSPropertyOp0
 70
     1
102
RTVSPropertyOp1
 70
     1
102
RTVSPropertyOp2
 70
     1
102
RTVSPropertyOp3
 70
     1
102
RTVSPropertyOp4
 70
     1
102
RTVSPropertyOp5
 70
     1
102
RTVSPropertyOp6
 70
     1
102
RTVSPropertyOp7
 70
     1
102
RTVSPropertyOp8
 70
     1
102
RTVSPropertyOp9
 70
     1
102
RTVSPropertyOp10
 70
     1
102
RTVSPropertyOp11
 70
     1
102
RTVSPropertyOp12
 70
     1
102
RTVSPropertyOp13
 70
     1
102
RTVSPropertyOp14
 70
     1
102
RTVSPropertyOp15
 70
     1
102
RTVSPropertyOp16
 70
     1
102
RTVSPropertyOp17
 70
     1
102
RTVSPropertyOp18
 70
     1
102
RTVSPropertyOp19
 70
     1
102
RTVSPropertyOp20
 70
     1
102
RTVSPropertyOp21
 70
     1
102
RTVSPropertyOp22
 70
     1
102
RTVSPropertyOp23
 70
     1
102
RTVSPropertyOp24
 70
     1
102
RTVSPropertyOp25
 70
     1
102
RTVSPropertyOp26
 70
     1
102
RTVSPropertyOp27
 70
     1
102
RTVSPropertyOp28
 70
     1
102
RTVSPropertyOp29
 70
     1
102
RTVSPropertyOp30
 70
     1
102
RTVSPropertyOp31
 70
     1
102
RTVSPropertyOp32
 70
     1
  0
XRECORD
  5
3E9
102
{ACAD_REACTORS
330
3E8
102
}
330
3E8
100
AcDbXrecord
280
     1
102
RTVSPropertyOp0
 70
     1
102
RTVSPropertyOp1
 70
     1
102
RTVSPropertyOp2
 70
     1
102
RTVSPropertyOp3
 70
     1
102
RTVSPropertyOp4
 70
     1
102
RTVSPropertyOp5
 70
     1
102
RTVSPropertyOp6
 70
     1
102
RTVSPropertyOp7
 70
     1
102
RTVSPropertyOp8
 70
     1
102
RTVSPropertyOp9
 70
     1
102
RTVSPropertyOp10
 70
     1
102
RTVSPropertyOp11
 70
     1
102
RTVSPropertyOp12
 70
     1
102
RTVSPropertyOp13
 70
     1
102
RTVSPropertyOp14
 70
     1
102
RTVSPropertyOp15
 70
     1
102
RTVSPropertyOp16
 70
     1
102
RTVSPropertyOp17
 70
     1
102
RTVSPropertyOp18
 70
     1
102
RTVSPropertyOp19
 70
     1
102
RTVSPropertyOp20
 70
     1
102
RTVSPropertyOp21
 70
     1
102
RTVSPropertyOp22
 70
     1
102
RTVSPropertyOp23
 70
     1
102
RTVSPropertyOp24
 70
     1
102
RTVSPropertyOp25
 70
     1
102
RTVSPropertyOp26
 70
     1
102
RTVSPropertyOp27
 70
     1
102
RTVSPropertyOp28
 70
     1
102
RTVSPropertyOp29
 70
     1
102
RTVSPropertyOp30
 70
     1
102
RTVSPropertyOp31
 70
     1
102
RTVSPropertyOp32
 70
     1
  0
XRECORD
  5
3F1
102
{ACAD_REACTORS
330
3F0
102
}
330
3F0
100
AcDbXrecord
280
     1
102
RTVSPropertyOp0
 70
     1
102
RTVSPropertyOp1
 70
     1
102
RTVSPropertyOp2
 70
     1
102
RTVSPropertyOp3
 70
     1
102
RTVSPropertyOp4
 70
     1
102
RTVSPropertyOp5
 70
     1
102
RTVSPropertyOp6
 70
     1
102
RTVSPropertyOp7
 70
     1
102
RTVSPropertyOp8
 70
     1
102
RTVSPropertyOp9
 70
     1
102
RTVSPropertyOp10
 70
     1
102
RTVSPropertyOp11
 70
     1
102
RTVSPropertyOp12
 70
     1
102
RTVSPropertyOp13
 70
     1
102
RTVSPropertyOp14
 70
     1
102
RTVSPropertyOp15
 70
     1
102
RTVSPropertyOp16
 70
     1
102
RTVSPropertyOp17
 70
     1
102
RTVSPropertyOp18
 70
     1
102
RTVSPropertyOp19
 70
     1
102
RTVSPropertyOp20
 70
     1
102
RTVSPropertyOp21
 70
     1
102
RTVSPropertyOp22
 70
     1
102
RTVSPropertyOp23
 70
     1
102
RTVSPropertyOp24
 70
     1
102
RTVSPropertyOp25
 70
     1
102
RTVSPropertyOp26
 70
     1
102
RTVSPropertyOp27
 70
     1
102
RTVSPropertyOp28
 70
     1
102
RTVSPropertyOp29
 70
     1
102
RTVSPropertyOp30
 70
     1
102
RTVSPropertyOp31
 70
     1
102
RTVSPropertyOp32
 70
     1
  0
ENDSEC
  0
EOF
